<?xml version="1.0" standalone="no"?>
<!DOCTYPE svg PUBLIC "-//W3C//DTD SVG 1.1//EN" "http://www.w3.org/Graphics/SVG/1.1/DTD/svg11.dtd" >
<svg xmlns="http://www.w3.org/2000/svg" xmlns:xlink="http://www.w3.org/1999/xlink" version="1.1">
<metadata></metadata>
<defs>
<font id="mazeletterziggurat" horiz-adv-x="2048" >
<font-face units-per-em="2048" ascent="1536" descent="-512" />
<missing-glyph horiz-adv-x="512" />
<glyph horiz-adv-x="0" />
<glyph horiz-adv-x="0" />
<glyph unicode=" "  horiz-adv-x="512" />
<glyph unicode="&#x09;" horiz-adv-x="512" />
<glyph unicode="&#xa0;" horiz-adv-x="512" />
<glyph unicode="!" horiz-adv-x="1024" d="M-63 -193v386h256v256h256v256h256v256h256v126h-256v256h-256v386h126v-256h256v-256h256v-386h-256v-256h-256v-256h-256v-256h-256v-256h-126zM-63 319v386h256v256h256v126h-256v256h-256v386h126v-256h256v-256h256v-386h-256v-256h-256v-256h-126zM-63 -319h256 v256h256v256h256v256h256v256h126v-386h-256v-256h-256v-256h-256v-256h-256v-256h-126v386zM449 -319h256v256h256v256h126v-386h-256v-256h-256v-256h-126v386z" />
<glyph unicode="&#x22;" d="M-63 -193v386h256v256h256v126h-256v256h-256v386h126v-256h256v-256h256v-386h-256v-256h-256v-256h-126zM-63 1343v386h126v-256h256v-256h256v-256h256v-256h256v-386h-256v-256h-256v-256h-256v-126h256v-386h-126v256h-256v386h256v256h256v256h256v126h-256v256 h-256v256h-256v256h-256zM449 1343v386h126v-256h256v-256h256v-256h386v126h-256v256h-256v386h126v-256h256v-256h256v-256h256v-256h256v-386h-126v256h-256v256h-386v-256h-126v256h-256v256h-256v256h-256zM705 -63h256v256h256v256h256v256h126v-256h256v-386h-256 v-256h-256v-256h-256v-256h-126v386h256v256h256v256h256v126h-386v-256h-256v-256h-256v-256h-126v386zM1473 1343v386h126v-256h256v-256h256v-386h-126v256h-256v256h-256zM1729 -63h256v256h126v-386h-256v-126h256v-386h-126v256h-256v386z" />
<glyph unicode="#" d="M-63 -193v386h256v126h-256v386h126v-256h256v-386h-256v-256h-126zM-63 -319h256v256h256v256h256v126h-256v256h-256v256h-256v386h126v-256h256v-256h256v-256h386v256h256v126h-256v256h-256v256h-256v386h126v-256h256v-256h256v-256h386v256h256v256h256v256h126 v-386h-256v-256h-256v-256h-256v-126h256v-256h386v256h126v-386h-256v-126h256v-386h-126v256h-386v-256h-256v-126h256v-386h-126v256h-386v-256h-126v386h256v126h-256v256h-386v-256h-256v-256h-256v-256h-126v386zM-63 1343v386h126v-256h256v-256h256v-256h256v-386 h-126v256h-256v256h-256v256h-256zM449 -319h256v256h126v-386h-256v-256h-126v386zM831 193h256v-256h386v256h256v126h-256v256h-386v-256h-256v-126zM961 1343v386h126v-256h386v256h126v-386h-256v-256h-126v256h-256zM1729 -63h126v-256h256v-386h-126v256h-256v386z M1729 575v386h256v256h126v-386h-256v-256h-126z" />
<glyph unicode="$" d="M-63 -319h256v256h256v126h-256v256h-256v386h126v-256h386v126h-256v256h-256v386h256v256h256v256h126v-256h386v256h126v-386h-256v-256h-126v256h-386v-256h-256v-126h256v-256h256v-386h-256v-126h256v-256h256v-386h-126v256h-386v-256h-256v-256h-126v386z M449 831v386h126v-256h386v256h126v-256h256v-386h-126v256h-386v-126h256v-256h256v-256h256v-256h386v256h126v-386h-256v-256h-256v-256h-126v256h-386v-256h-126v386h256v256h126v-256h386v126h-256v256h-386v-256h-126v256h-256v386h126v-256h386v126h-256v256h-256 v256h-256zM1217 1087v386h126v-256h386v256h256v256h126v-386h-256v-256h-256v-126h256v-386h-256v-126h256v-386h-126v256h-256v386h256v126h-256v256h-256z" />
<glyph unicode="%" d="M-63 -193v386h256v126h-256v386h126v-256h256v-386h-256v-256h-126zM-63 -319h256v256h256v256h126v-256h256v-256h386v256h126v-256h386v256h256v256h126v-386h-256v-256h-256v-256h-126v256h-386v-256h-126v256h-256v256h-386v-256h-256v-256h-126v386zM-63 831v386 h126v-256h256v-256h386v256h126v-256h256v-386h-256v-126h256v-386h-126v256h-256v386h256v126h-386v-256h-126v256h-256v256h-256zM193 1087v386h256v256h126v-256h256v-386h-256v-256h-126v256h-256zM319 1217h386v126h-386v-126zM961 831v386h256v126h-256v386h126v-256 h256v-386h-256v-256h-126zM1217 63v386h256v256h126v-256h256v-386h-256v-256h-126v256h-256zM1217 575v386h256v256h126v-256h256v-256h256v-386h-126v256h-256v256h-386v-256h-126zM1343 193h386v126h-386v-126zM1729 1087v386h256v256h126v-386h-256v-126h256v-386h-126 v256h-256z" />
<glyph unicode="&#x26;" d="M-63 -193v386h126v-256h256v-256h386v126h-256v256h-256v256h-256v386h256v256h126v-256h256v-256h256v-256h256v-256h256v-256h386v256h256v256h126v-386h-256v-256h-256v-256h-126v256h-256v256h-256v256h-256v256h-256v256h-386v-126h256v-256h256v-256h256v-386h-256 v-256h-126v256h-256v256h-256zM-63 1343v386h126v-256h256v-256h256v-256h256v-256h256v-256h256v-256h386v126h-256v256h-256v256h-256v256h-256v386h256v256h126v-256h256v-256h256v-256h386v126h-256v256h-256v386h126v-256h256v-256h256v-386h-256v-256h-126v256h-256 v256h-256v256h-386v-126h256v-256h256v-256h256v-256h256v-386h-256v-256h-126v256h-256v256h-256v256h-256v256h-256v256h-256v256h-256z" />
<glyph unicode="'" d="M-63 -193v386h256v256h256v126h-256v256h-256v386h126v-256h256v-256h256v-386h-256v-256h-256v-256h-126zM-63 -319h256v256h256v256h256v256h256v126h-256v256h-256v256h-256v386h256v256h126v-386h-256v-126h256v-256h256v-256h256v-386h-256v-256h-256v-256h-256 v-256h-256v-256h-126v386zM449 -319h256v256h256v256h256v256h126v-256h386v256h256v256h126v-386h-256v-256h-256v-256h-256v-256h-256v-256h-126v386h256v256h256v126h-386v-256h-256v-256h-256v-256h-126v386zM705 1087v386h126v-256h256v-256h256v-256h386v126h-256v256 h-256v256h-256v386h126v-256h256v-256h256v-256h256v-386h-256v-256h-126v256h-256v256h-256v256h-256zM1473 -319h256v256h256v256h126v-386h-256v-256h-256v-256h-126v386zM1729 1087v386h256v256h126v-386h-256v-126h256v-386h-126v256h-256z" />
<glyph unicode="(" horiz-adv-x="512" d="M-63 -193v386h126v-256h256v-386h-256v-256h-126v386h256v126h-256zM-63 319v386h256v256h256v256h126v-386h-256v-256h-256v-126h256v-256h256v-386h-126v256h-256v256h-256zM-63 831v386h256v126h-256v386h126v-256h256v-386h-256v-256h-126z" />
<glyph unicode=")" horiz-adv-x="512" d="M-63 -193v386h256v256h256v126h-256v256h-256v386h126v-256h256v-256h256v-386h-256v-256h-256v-256h-126zM193 -63h256v256h126v-386h-256v-126h256v-386h-126v256h-256v386zM193 1087v386h256v256h126v-386h-256v-126h256v-386h-126v256h-256z" />
<glyph unicode="*" d="M-63 -193v386h256v126h-256v386h126v-256h256v-386h-256v-256h-126zM-63 -319h256v256h256v256h256v256h256v256h256v256h126v-386h-256v-256h-256v-256h-256v-256h-256v-256h-256v-256h-126v386zM-63 831v386h256v256h126v-386h-256v-256h-126zM193 575v386h256v256h126 v-256h256v-386h-126v256h-386v-126h256v-386h-126v256h-256zM449 1343v386h126v-256h256v-386h-126v256h-256zM705 -63h256v256h126v-386h-256v-126h256v-386h-126v256h-256v386zM961 831v386h256v256h126v-386h-256v-256h-126zM1217 63v386h126v-256h256v-256h256v-256h256 v-386h-126v256h-256v256h-256v256h-256zM1217 -63h126v-256h256v-386h-126v256h-256v386zM1473 319v386h256v126h-256v386h126v-256h256v-386h-256v-126h256v-386h-126v256h-256zM1473 1343v386h126v-256h256v-386h-126v256h-256z" />
<glyph unicode="+" horiz-adv-x="512" d="M-63 -193v386h256v126h-256v386h126v-256h256v-386h-256v-256h-126zM-63 831v386h256v126h-256v386h126v-256h256v-386h-256v-256h-126zM193 -63h256v256h126v-386h-256v-126h256v-386h-126v256h-256v386zM193 575v386h256v256h126v-386h-256v-126h256v-386h-126v256 h-256z" />
<glyph unicode="," horiz-adv-x="512" d="M-63 -193v386h256v126h-256v386h126v-256h256v-386h-256v-256h-126zM-63 -319h256v256h256v256h126v-386h-256v-256h-256v-256h-126v386zM-63 831v386h126v-256h256v-256h256v-386h-126v256h-256v256h-256zM193 1087v386h256v256h126v-386h-256v-126h256v-386h-126v256 h-256z" />
<glyph unicode="-" horiz-adv-x="512" d="M-63 -193v386h256v256h256v256h126v-386h-256v-256h-256v-256h-126zM-63 319v386h256v256h256v256h126v-386h-256v-256h-256v-256h-126zM-63 831v386h256v126h-256v386h126v-256h256v-386h-256v-256h-126zM193 -63h256v256h126v-386h-256v-126h256v-386h-126v256h-256 v386z" />
<glyph unicode="." horiz-adv-x="512" d="M-63 -319h256v256h256v126h-256v256h-256v386h256v256h256v126h-256v256h-256v386h126v-256h256v-256h256v-386h-256v-256h-256v-126h256v-256h256v-386h-256v-256h-256v-256h-126v386z" />
<glyph unicode="/" horiz-adv-x="1024" d="M-63 -193v386h126v-256h256v-256h256v-386h-126v256h-256v256h-256zM-63 319v386h256v126h-256v386h126v-256h256v-386h-256v-256h-126zM-63 1343v386h126v-256h256v-256h256v-256h256v-386h-256v-256h-256v-126h256v-256h256v-256h256v-386h-126v256h-256v256h-256v256 h-256v386h256v256h256v126h-256v256h-256v256h-256zM449 1343v386h126v-256h256v-256h256v-386h-126v256h-256v256h-256zM705 63v386h256v256h126v-386h-256v-126h256v-386h-126v256h-256z" />
<glyph unicode="0" d="M-63 -193v386h256v256h126v-256h256v-256h256v-256h256v-386h-126v256h-256v256h-256v256h-386v-256h-126zM-63 -319h256v256h126v-256h256v-386h-126v256h-386v-256h-126v386zM-63 831v386h126v-256h386v256h256v256h256v256h126v-386h-256v-256h-256v-256h-256v-256 h-126v256h-256zM-63 1343v386h126v-256h386v256h126v-386h-256v-256h-126v256h-256zM449 319v386h256v256h256v256h256v256h126v-256h256v-256h256v-256h256v-386h-256v-256h-256v-256h-256v-256h-126v256h-256v256h-256v256h-256zM575 449h256v-256h256v-256h386v256h256 v256h256v126h-256v256h-256v256h-386v-256h-256v-256h-256v-126zM961 319v386h256v256h126v-256h256v-386h-256v-256h-126v256h-256zM1087 449h386v126h-386v-126zM1473 -319h256v256h256v256h126v-386h-256v-256h-256v-256h-126v386zM1473 1343v386h126v-256h256v-256h256 v-386h-126v256h-256v256h-256z" />
<glyph unicode="1" d="M-63 -193v386h256v256h256v256h256v256h256v256h256v256h256v256h126v-386h-256v-256h-256v-256h-256v-256h-256v-256h-256v-256h-256v-256h-126zM-63 -319h256v256h256v256h256v256h256v256h256v256h256v256h126v-386h-256v-256h-256v-256h-256v-256h-256v-256h-256 v-256h-256v-256h-126v386zM-63 319v386h256v256h126v-386h-256v-256h-126zM-63 831v386h256v256h256v256h126v-386h-256v-256h-256v-256h-126zM449 -319h256v256h126v-386h-256v-256h-126v386zM449 831v386h256v256h256v256h126v-386h-256v-256h-256v-256h-126zM961 -193 v386h256v256h256v256h256v256h256v256h126v-386h-256v-256h-256v-256h-256v-256h-256v-256h-126zM961 -319h256v256h256v256h256v256h256v256h126v-386h-256v-256h-256v-256h-256v-256h-256v-256h-126v386zM1473 -319h256v256h256v256h126v-386h-256v-256h-256v-256h-126 v386zM1729 1087v386h256v256h126v-386h-256v-256h-126z" />
<glyph unicode="2" d="M-63 -193v386h256v256h256v126h-256v386h126v-256h386v256h256v126h-256v386h126v-256h386v256h256v256h126v-256h256v-386h-126v256h-386v-256h-256v-126h256v-386h-126v256h-386v-256h-256v-126h256v-386h-126v256h-386v-256h-256v-126h256v-386h-126v256h-256z M-63 831v386h256v126h-256v386h126v-256h386v256h126v-386h-256v-126h256v-386h-126v256h-386v-256h-126zM449 -193v386h126v-256h386v256h256v126h-256v386h126v-256h386v256h256v126h-256v386h126v-256h386v256h126v-386h-256v-126h256v-386h-126v256h-386v-256h-256v-126 h256v-386h-126v256h-386v-256h-256v-126h256v-386h-126v256h-386v-256h-126v386h256v126h-256zM1217 -63h126v-256h386v256h256v126h-256v386h126v-256h256v-386h-256v-256h-256v-256h-126v256h-256v386z" />
<glyph unicode="3" d="M-63 -193v386h126v-256h386v126h-256v256h-256v386h126v-256h256v-256h386v126h-256v256h-256v256h-256v386h126v-256h256v-256h256v-256h256v-386h-256v-256h-256v-256h-256v-256h-126v386h256v126h-256zM-63 1343v386h126v-256h256v-256h256v-256h256v-256h386v126 h-256v256h-256v256h-256v386h126v-256h256v-256h256v-256h386v126h-256v256h-256v386h126v-256h256v-256h386v126h-256v386h126v-256h386v256h126v-386h-256v-256h-256v-256h-256v-256h-256v-256h-126v256h-256v256h-256v256h-256v256h-256zM449 -319h256v256h256v256h256 v256h256v256h256v256h256v256h126v-386h-256v-256h-256v-256h-256v-256h-256v-256h-256v-256h-256v-256h-126v386zM961 -319h256v256h256v256h256v256h256v256h126v-386h-256v-256h-256v-256h-256v-256h-256v-256h-126v386zM1473 -319h256v256h256v256h126v-386h-256v-256 h-256v-256h-126v386z" />
<glyph unicode="4" d="M-63 -193v386h256v256h256v256h126v-256h256v-256h256v-386h-256v-126h256v-386h-126v256h-386v-256h-126v256h-256v256h-256zM-63 319v386h256v256h256v256h256v256h256v256h126v-256h386v256h126v-256h256v-256h256v-386h-256v-256h-256v-256h-126v256h-256v256h-256 v386h256v126h-386v-256h-256v-126h256v-256h256v-256h256v-256h386v256h256v256h126v-386h-256v-256h-256v-126h256v-256h256v-386h-126v256h-256v256h-386v-256h-126v386h256v126h-256v256h-256v256h-256v256h-386v-256h-256v-256h-126zM-63 1343v386h126v-256h256v-386 h-126v256h-256zM63 63v-126h256v-256h386v256h256v126h-256v256h-386v-256h-256zM1087 961h256v-256h386v256h256v126h-256v256h-386v-256h-256v-126z" />
<glyph unicode="5" d="M-63 -193v386h256v126h-256v386h126v-256h256v-386h-256v-256h-126zM-63 831v386h256v256h256v256h126v-386h-256v-256h-256v-256h-126zM193 -63h256v256h126v-256h386v256h256v256h126v-386h-256v-256h-256v-126h256v-386h-126v256h-256v256h-386v-126h256v-386h-126 v256h-256v386zM193 575v386h256v256h256v256h256v256h126v-386h-256v-256h-256v-256h-256v-126h256v-256h386v256h256v256h126v-256h256v-256h256v-386h-256v-256h-256v-256h-126v386h256v256h256v126h-256v256h-386v-256h-256v-256h-126v256h-256v256h-256zM705 575v386 h256v256h256v256h256v256h126v-386h-256v-126h386v256h256v256h126v-386h-256v-256h-256v-256h-126v256h-386v-256h-256v-256h-126zM1473 -319h256v256h256v256h126v-386h-256v-256h-256v-256h-126v386zM1729 575v386h256v256h126v-386h-256v-126h256v-386h-126v256h-256z " />
<glyph unicode="6" d="M-63 -193v386h126v-256h256v-386h-256v-256h-126v386h256v126h-256zM-63 319v386h256v256h256v126h-386v-256h-126v386h256v256h126v-256h256v-386h-256v-256h-256v-256h-126zM193 63v386h256v256h126v-256h256v-386h-256v-256h-126v256h-256zM319 193h386v126h-386v-126 zM449 -319h256v256h126v-256h256v-386h-126v256h-386v-256h-126v386zM449 1343v386h126v-256h386v256h126v-386h-256v-256h-126v256h-256zM705 575v386h256v256h126v-256h256v-386h-256v-256h-126v256h-256zM831 705h386v126h-386v-126zM961 -193v386h256v256h126v-256h256 v-386h-256v-256h-126v256h-256zM1087 63v-126h386v126h-386zM1217 1087v386h256v256h126v-386h-256v-126h386v256h256v256h126v-386h-256v-256h-256v-256h-126v256h-256zM1473 319v386h256v256h256v256h126v-386h-256v-256h-256v-126h386v256h126v-386h-256v-256h-126v256 h-256zM1473 -319h256v256h256v256h126v-386h-256v-256h-256v-256h-126v386z" />
<glyph unicode="7" d="M-63 -193v386h256v126h-256v386h126v-256h256v-386h-256v-256h-126zM-63 -319h256v256h256v256h256v126h-256v256h-256v386h256v256h256v256h256v256h126v-256h386v256h126v-386h-256v-256h-126v256h-386v-256h-256v-256h-256v-126h256v-256h256v-386h-256v-256h-256 v-256h-256v-256h-126v386zM-63 831v386h256v256h256v256h126v-386h-256v-256h-256v-256h-126zM449 -319h256v256h256v256h256v126h-256v256h-256v386h256v256h126v-386h-256v-126h256v-256h256v-386h-256v-256h-256v-256h-256v-256h-126v386zM1217 -63h256v256h256v126h-256 v256h-256v386h256v256h256v256h256v256h126v-386h-256v-256h-256v-256h-256v-126h256v-256h256v-386h-256v-256h-256v-256h-126v386zM1473 -319h256v256h256v256h126v-386h-256v-256h-256v-256h-126v386zM1729 575v386h256v256h126v-386h-256v-126h256v-386h-126v256h-256z " />
<glyph unicode="8" d="M-63 -193v386h126v-256h256v-256h256v-386h-126v256h-256v256h-256zM-63 319v386h256v126h-256v386h126v-256h256v-386h-256v-256h-126zM-63 1343v386h126v-256h256v-256h386v126h-256v386h126v-256h256v-386h-256v-256h-126v256h-256v256h-256zM193 63v386h256v256h126 v-256h256v-256h256v-386h-126v256h-256v256h-386v-126h256v-256h256v-256h256v-386h-126v256h-256v256h-256v256h-256zM705 575v386h256v256h126v-256h256v-256h256v-256h256v-256h256v-386h-126v256h-256v256h-256v256h-256v256h-386v-126h256v-256h256v-256h256v-386h-256 v-126h256v-386h-126v256h-256v386h256v126h-256v256h-256v256h-256zM961 1343v386h126v-256h256v-256h256v-256h256v-256h256v-386h-126v256h-256v256h-256v256h-256v256h-256zM1473 1343v386h126v-256h256v-256h256v-386h-126v256h-256v256h-256zM1729 -63h126v-256h256 v-386h-126v256h-256v386z" />
<glyph unicode="9" d="M-63 -193v386h126v-256h256v-256h256v-386h-126v256h-256v256h-256zM-63 319v386h256v256h256v256h256v256h256v256h126v-386h-256v-256h-256v-256h-256v-256h-256v-126h256v-256h256v-256h256v-386h-126v256h-256v256h-256v256h-256zM-63 831v386h256v256h256v256h126 v-386h-256v-256h-256v-256h-126zM449 319v386h256v256h126v-386h-256v-126h256v-256h256v-256h256v-386h-256v-256h-126v386h256v126h-256v256h-256v256h-256zM961 319v386h256v256h126v-256h256v-256h256v-256h256v-386h-126v256h-256v256h-256v256h-386v-126h256v-256h256 v-256h256v-256h256v-386h-126v256h-256v256h-256v256h-256v256h-256zM961 831v386h256v256h126v-256h256v-256h256v-256h256v-386h-126v256h-256v256h-256v256h-386v-256h-126zM1473 1343v386h126v-256h256v-256h256v-386h-126v256h-256v256h-256z" />
<glyph unicode=":" horiz-adv-x="512" d="M-63 -193v386h256v256h256v126h-256v256h-256v386h256v256h256v256h126v-386h-256v-256h-256v-126h256v-256h256v-386h-256v-256h-256v-126h256v-256h256v-386h-126v256h-256v256h-256z" />
<glyph unicode=";" horiz-adv-x="512" d="M-63 -193v386h256v256h256v256h126v-386h-256v-256h-256v-256h-126zM-63 319v386h256v126h-256v386h126v-256h256v-386h-256v-256h-126zM-63 1343v386h126v-256h256v-256h256v-386h-126v256h-256v256h-256zM193 -63h256v256h126v-386h-256v-126h256v-386h-126v256h-256 v386z" />
<glyph unicode="&#x3c;" horiz-adv-x="512" d="M-63 319v386h256v256h256v256h126v-386h-256v-256h-256v-126h256v-256h256v-386h-126v256h-256v256h-256zM-63 -319h256v256h126v-386h-256v-256h-126v386zM-63 1343v386h126v-256h256v-386h-126v256h-256z" />
<glyph unicode="=" horiz-adv-x="512" d="M-63 319v386h126v-256h256v-256h256v-386h-126v256h-256v256h-256zM-63 -319h256v256h126v-256h256v-386h-126v256h-386v-256h-126v386zM-63 831v386h126v-256h256v-256h256v-386h-126v256h-256v256h-256zM-63 1343v386h126v-256h386v256h126v-386h-256v-256h-126v256 h-256z" />
<glyph unicode="&#x3e;" horiz-adv-x="512" d="M-63 -193v386h256v256h256v126h-256v256h-256v386h126v-256h256v-256h256v-386h-256v-256h-256v-256h-126zM193 -63h126v-256h256v-386h-126v256h-256v386zM193 1087v386h256v256h126v-386h-256v-256h-126z" />
<glyph unicode="?" horiz-adv-x="1024" d="M-63 -193v386h256v256h256v256h256v256h256v126h-256v256h-256v386h126v-256h256v-256h256v-386h-256v-256h-256v-256h-256v-126h256v-256h386v256h126v-386h-256v-256h-256v-256h-126v386h256v126h-256v256h-386v-256h-126zM-63 319v386h256v256h256v126h-256v256h-256 v386h126v-256h256v-256h256v-386h-256v-256h-256v-256h-126zM-63 -319h256v256h126v-386h-256v-256h-126v386zM705 63v386h256v256h126v-386h-256v-256h-126z" />
<glyph unicode="@" d="M-63 -193v386h126v-256h256v-256h256v-386h-126v256h-256v256h-256zM-63 319v386h126v-256h256v-256h256v-256h386v256h256v256h256v126h-256v256h-386v-256h-126v386h256v256h126v-256h256v-256h256v-386h-256v-256h-256v-256h-256v-256h-126v256h-256v256h-256v256 h-256zM-63 831v386h256v256h256v256h126v-386h-256v-256h-256v-256h-126zM193 575v386h256v256h256v256h256v256h126v-256h256v-256h256v-256h256v-256h256v-386h-256v-256h-256v-256h-256v-256h-256v-256h-126v386h256v256h256v256h256v256h256v126h-256v256h-256v256h-256 v256h-386v-256h-256v-256h-256v-126h256v-256h386v256h126v-386h-256v-256h-126v256h-256v256h-256zM1473 -319h256v256h256v256h126v-386h-256v-256h-256v-256h-126v386zM1729 1087v386h256v256h126v-386h-256v-126h256v-386h-126v256h-256z" />
<glyph unicode="A" horiz-adv-x="512" d="M-63 -193v386h256v256h256v256h126v-386h-256v-256h-256v-256h-126zM-63 319v386h256v256h256v256h126v-386h-256v-256h-256v-256h-126zM-63 -319h256v256h256v256h126v-386h-256v-256h-256v-256h-126v386zM-63 831v386h256v256h256v256h126v-386h-256v-256h-256v-256 h-126z" />
<glyph unicode="B" d="M-63 -193v386h256v126h-256v386h126v-256h256v-386h-256v-256h-126zM-63 -319h256v256h256v256h256v126h-256v256h-256v256h-256v386h126v-256h256v-256h256v-256h386v256h256v256h256v256h126v-386h-256v-256h-256v-256h-256v-256h-256v-256h-256v-256h-256v-256h-126 v386zM-63 1343v386h126v-256h256v-256h386v256h256v256h126v-386h-256v-256h-256v-256h-126v256h-256v256h-256zM449 -319h256v256h126v-256h256v-386h-126v256h-386v-256h-126v386zM705 575v386h256v256h256v256h256v256h126v-256h256v-256h256v-386h-256v-256h-256v-256 h-256v-256h-256v-126h256v-256h256v-386h-126v256h-256v256h-256v386h256v256h256v256h256v256h256v126h-256v256h-386v-256h-256v-256h-256v-256h-126zM1473 -193v386h256v256h256v256h126v-386h-256v-256h-256v-126h256v-256h256v-386h-126v256h-256v256h-256z" />
<glyph unicode="C" d="M-63 319v386h126v-256h386v126h-256v386h256v256h256v256h126v-256h386v126h-256v386h126v-256h256v-386h-256v-256h-126v256h-386v-256h-256v-126h256v-386h-256v-256h-126v256h-256zM-63 -319h256v256h256v256h256v256h126v-256h256v-256h386v256h256v126h-256v386h256 v256h126v-256h256v-386h-126v256h-386v-126h256v-386h-256v-256h-256v-256h-126v256h-256v256h-386v-256h-256v-256h-256v-256h-126v386zM-63 831v386h256v256h256v256h126v-386h-256v-256h-256v-256h-126zM449 -319h256v256h126v-256h256v-386h-126v256h-386v-256h-126v386 zM705 575v386h126v-256h386v256h256v256h256v126h-256v386h126v-256h256v-256h256v-386h-126v256h-386v-256h-256v-256h-256v-126h256v-386h-126v256h-256v256h-256zM1473 -319h256v256h256v256h126v-386h-256v-256h-256v-256h-126v386z" />
<glyph unicode="D" d="M-63 -193v386h126v-256h386v126h-256v386h256v256h256v126h-256v386h256v256h126v-256h256v-256h256v-256h256v-256h256v-256h256v-386h-126v256h-256v256h-256v256h-256v256h-256v256h-386v-126h256v-386h-256v-256h-256v-126h256v-386h-256v-256h-126v256h-256z M-63 319v386h256v126h-256v386h126v-256h256v-386h-256v-256h-126zM-63 1343v386h126v-256h386v256h126v-386h-256v-256h-126v256h-256zM449 -319h256v256h126v-256h256v-386h-126v256h-386v-256h-126v386zM705 63v386h256v256h126v-256h256v-256h256v-256h256v-256h256 v-386h-126v256h-256v256h-256v256h-256v256h-386v-126h256v-256h256v-256h256v-386h-126v256h-256v256h-256v256h-256zM961 1343v386h126v-256h256v-256h256v-256h256v-256h256v-386h-126v256h-256v256h-256v256h-256v256h-256zM1473 1343v386h126v-256h256v-256h256v-386 h-126v256h-256v256h-256z" />
<glyph unicode="E" horiz-adv-x="512" d="M-63 -193v386h256v256h256v256h126v-386h-256v-256h-256v-126h256v-256h256v-386h-126v256h-256v256h-256zM-63 319v386h256v256h256v256h126v-386h-256v-256h-256v-256h-126zM-63 831v386h256v256h256v256h126v-386h-256v-256h-256v-256h-126z" />
<glyph unicode="F" d="M-63 -193v386h256v256h126v-256h256v-386h-256v-256h-256v-256h-126v386h256v256h256v126h-386v-256h-126zM-63 319v386h256v256h126v-256h256v-256h256v-256h256v-386h-256v-256h-256v-256h-126v386h256v256h256v126h-256v256h-256v256h-386v-256h-126zM-63 831v386h256 v256h126v-256h256v-256h256v-256h256v-256h256v-256h256v-256h386v256h126v-386h-256v-256h-126v256h-256v256h-256v256h-256v256h-256v256h-256v256h-386v-256h-126zM449 1343v386h126v-256h386v256h126v-386h-256v-256h-126v256h-256zM961 -319h256v256h126v-256h256v-386 h-126v256h-386v-256h-126v386zM961 831v386h256v256h256v256h126v-386h-256v-256h-256v-126h256v-256h256v-256h386v256h126v-386h-256v-256h-126v256h-256v256h-256v256h-256zM1473 831v386h256v256h256v256h126v-386h-256v-256h-256v-126h386v256h126v-386h-256v-256h-126 v256h-256z" />
<glyph unicode="G" d="M-63 -193v386h126v-256h256v-256h256v-386h-126v256h-256v256h-256zM-63 319v386h126v-256h256v-256h256v-256h256v-256h256v-386h-126v256h-256v256h-256v256h-256v256h-256zM-63 831v386h256v256h256v256h126v-386h-256v-256h-256v-256h-126zM193 575v386h256v256h256 v256h256v256h126v-386h-256v-256h-256v-256h-256v-126h386v256h256v256h256v256h126v-256h256v-256h256v-386h-256v-256h-256v-256h-126v386h256v256h256v126h-256v256h-386v-256h-256v-256h-256v-256h-126v256h-256zM705 63v386h256v256h256v256h126v-386h-256v-256h-256 v-126h256v-256h386v256h256v256h256v256h126v-386h-256v-256h-256v-256h-256v-256h-126v256h-256v256h-256zM1473 -319h256v256h256v256h126v-386h-256v-256h-256v-256h-126v386zM1473 1343v386h126v-256h256v-256h256v-386h-126v256h-256v256h-256z" />
<glyph unicode="H" horiz-adv-x="1024" d="M-63 -193v386h256v256h126v-256h256v-386h-256v-256h-256v-256h-126v386h256v256h256v126h-386v-256h-126zM-63 319v386h256v256h256v126h-386v-256h-126v386h256v256h126v-256h256v-386h-256v-256h-256v-256h-126zM449 319v386h256v256h256v256h126v-386h-256v-256h-256 v-126h386v256h126v-386h-256v-256h-126v256h-256zM449 -319h256v256h256v256h126v-386h-256v-256h-256v-256h-126v386zM449 1343v386h126v-256h386v256h126v-386h-256v-256h-126v256h-256z" />
<glyph unicode="I" horiz-adv-x="512" d="M-63 -193v386h256v256h256v256h126v-386h-256v-256h-256v-256h-126zM-63 319v386h256v256h256v126h-256v256h-256v386h126v-256h256v-256h256v-386h-256v-256h-256v-256h-126zM-63 -319h256v256h256v256h126v-386h-256v-256h-256v-256h-126v386z" />
<glyph unicode="J" d="M-63 -193v386h256v256h126v-256h256v-256h256v-256h256v-386h-126v256h-256v256h-256v256h-386v-126h256v-256h256v-386h-126v256h-256v256h-256zM-63 319v386h256v256h126v-256h256v-256h256v-256h256v-256h256v-256h256v-386h-126v256h-256v256h-256v256h-256v256h-256 v256h-386v-256h-126zM-63 831v386h256v256h126v-256h256v-256h256v-256h256v-256h256v-256h256v-256h386v256h126v-386h-256v-256h-126v256h-256v256h-256v256h-256v256h-256v256h-256v256h-386v-256h-126zM449 1343v386h126v-256h256v-256h256v-256h256v-256h256v-256h386 v256h126v-386h-256v-256h-126v256h-256v256h-256v256h-256v256h-256v256h-256zM961 1343v386h126v-256h256v-256h256v-256h386v126h-256v256h-256v386h126v-256h256v-256h256v-386h-256v-256h-126v256h-256v256h-256v256h-256z" />
<glyph unicode="K" d="M-63 -193v386h256v256h126v-256h386v126h-256v256h-386v-256h-126v386h256v256h126v-256h256v-256h256v-386h-256v-256h-126v256h-386v-256h-126zM-63 -319h256v256h126v-386h-256v-256h-126v386zM-63 831v386h256v256h256v256h126v-386h-256v-256h-256v-256h-126z M449 -319h256v256h256v256h126v-256h256v-386h-256v-256h-126v386h256v126h-386v-256h-256v-256h-126v386zM449 831v386h256v256h256v256h126v-386h-256v-256h-256v-126h256v-256h256v-256h256v-256h386v256h256v256h126v-386h-256v-256h-256v-256h-126v256h-256v256h-256 v256h-256v256h-256zM961 831v386h256v256h126v-256h386v256h256v256h126v-386h-256v-256h-256v-256h-126v256h-386v-126h256v-256h386v256h256v256h126v-386h-256v-256h-256v-256h-126v256h-256v256h-256zM1473 -319h256v256h256v256h126v-386h-256v-256h-256v-256h-126v386 z" />
<glyph unicode="L" horiz-adv-x="1024" d="M-63 -193v386h256v126h-256v386h256v256h256v256h256v256h256v256h126v-386h-256v-256h-256v-256h-256v-256h-256v-126h256v-386h-256v-256h-126zM-63 -319h256v256h256v256h256v126h-256v386h256v256h256v256h126v-386h-256v-256h-256v-126h256v-386h-256v-256h-256 v-256h-256v-256h-126v386zM-63 831v386h256v256h256v256h126v-386h-256v-256h-256v-256h-126zM449 -319h256v256h256v256h126v-386h-256v-256h-256v-256h-126v386z" />
<glyph unicode="M" d="M-63 -193v386h256v126h-256v386h126v-256h256v-386h-256v-126h386v256h126v-256h256v-386h-256v-256h-126v386h256v126h-386v-256h-126v256h-256zM-63 831v386h256v256h126v-256h256v-386h-256v-126h386v256h126v-256h386v256h256v256h126v-256h256v-386h-256v-126h386 v256h126v-386h-256v-256h-126v256h-256v386h256v126h-386v-256h-256v-256h-256v-256h-126v386h256v126h-386v-256h-126v256h-256v386h256v126h-386v-256h-126zM449 1343v386h126v-256h386v256h126v-386h-256v-256h-126v256h-256zM961 -193v386h256v256h126v-256h256v-386 h-256v-256h-256v-256h-126v386h256v256h256v126h-386v-256h-126zM961 831v386h256v256h256v256h126v-386h-256v-256h-256v-256h-126zM1473 -319h256v256h126v-256h256v-386h-126v256h-386v-256h-126v386zM1729 1087v386h256v256h126v-386h-256v-126h256v-386h-126v256h-256z " />
<glyph unicode="N" d="M-63 -193v386h256v256h256v256h256v126h-256v256h-256v256h-256v386h126v-256h256v-256h386v126h-256v386h126v-256h256v-386h-256v-126h256v-256h386v256h126v-256h256v-386h-126v256h-386v-256h-126v256h-386v-256h-256v-256h-256v-256h-126zM-63 319v386h256v126h-256 v386h126v-256h256v-386h-256v-256h-126zM193 -63h256v256h126v-256h256v-256h386v256h126v-386h-256v-256h-126v256h-256v256h-386v-256h-126v386zM705 63v386h126v-256h386v256h126v-256h386v256h256v256h126v-386h-256v-256h-256v-126h256v-256h256v-386h-126v256h-386 v-256h-126v386h256v126h-256v256h-386v-256h-126v256h-256zM961 831v386h256v126h-256v386h126v-256h256v-256h256v-256h386v256h126v-386h-256v-256h-126v256h-256v256h-386v-256h-126zM1473 1343v386h126v-256h256v-386h-126v256h-256z" />
<glyph unicode="O" horiz-adv-x="512" d="M-63 -193v386h126v-256h256v-256h256v-386h-126v256h-256v256h-256zM-63 319v386h256v256h256v256h126v-386h-256v-256h-256v-126h256v-256h256v-386h-126v256h-256v256h-256zM-63 831v386h256v256h256v256h126v-386h-256v-256h-256v-256h-126z" />
<glyph unicode="P" d="M-63 -193v386h256v256h126v-256h256v-256h256v-256h256v-386h-126v256h-256v256h-256v256h-386v-256h-126zM-63 319v386h256v256h126v-256h256v-256h256v-256h256v-256h256v-256h256v-386h-126v256h-256v256h-256v256h-256v256h-256v256h-386v-256h-126zM-63 -319h256 v256h126v-256h256v-386h-126v256h-386v-256h-126v386zM-63 831v386h256v256h256v256h126v-386h-256v-256h-256v-256h-126zM449 831v386h256v256h256v256h126v-386h-256v-256h-256v-126h256v-256h256v-256h256v-256h256v-256h256v-256h256v-386h-126v256h-256v256h-256v256 h-256v256h-256v256h-256v256h-256zM961 831v386h256v256h256v256h126v-386h-256v-256h-256v-126h256v-256h256v-256h256v-256h256v-386h-126v256h-256v256h-256v256h-256v256h-256zM1473 831v386h256v256h126v-256h256v-386h-126v256h-386v-256h-126zM1729 575v386h126v-256 h256v-386h-126v256h-256z" />
<glyph unicode="Q" d="M-63 -193v386h256v126h-256v386h126v-256h256v-386h-256v-126h256v-256h256v-386h-126v256h-256v256h-256zM-63 1343v386h126v-256h256v-256h256v-386h-256v-126h256v-256h256v-256h256v-256h256v-256h256v-386h-126v256h-256v256h-256v256h-386v-126h256v-256h256v-386 h-126v256h-256v256h-256v386h256v126h-256v256h-256v386h256v126h-256v256h-256zM449 1343v386h126v-256h256v-256h256v-386h-256v-126h386v256h256v126h-256v256h-256v386h126v-256h256v-256h256v-386h-256v-256h-256v-126h256v-386h-126v256h-256v256h-256v386h256v126 h-256v256h-256zM1473 -193v386h256v126h-256v386h126v-256h256v-386h-256v-126h256v-256h256v-386h-126v256h-256v256h-256zM1473 1343v386h126v-256h256v-256h256v-386h-256v-126h256v-386h-126v256h-256v386h256v126h-256v256h-256z" />
<glyph unicode="R" horiz-adv-x="1024" d="M-63 -193v386h256v256h256v256h256v256h256v126h-256v256h-256v386h126v-256h256v-256h256v-386h-256v-256h-256v-256h-256v-256h-256v-256h-126zM-63 319v386h256v256h256v126h-256v256h-256v386h126v-256h256v-256h256v-386h-256v-256h-256v-256h-126zM-63 -319h256 v256h256v256h126v-256h256v-256h256v-386h-126v256h-256v256h-386v-256h-256v-256h-126v386zM705 63v386h256v256h126v-386h-256v-126h256v-386h-126v256h-256z" />
<glyph unicode="S" horiz-adv-x="1024" d="M-63 -193v386h126v-256h256v-256h256v-386h-126v256h-256v256h-256zM-63 319v386h126v-256h256v-256h386v256h256v126h-256v256h-256v386h126v-256h256v-256h256v-386h-256v-256h-256v-126h256v-256h256v-386h-126v256h-256v256h-256v256h-256v256h-256zM-63 831v386h256 v256h256v256h126v-256h256v-256h256v-386h-126v256h-256v256h-386v-256h-256v-126h256v-256h256v-386h-126v256h-256v256h-256z" />
<glyph unicode="T" horiz-adv-x="1024" d="M-63 -193v386h256v126h-256v386h126v-256h256v-386h-256v-256h-126zM-63 -319h256v256h256v256h256v256h256v256h126v-386h-256v-256h-256v-256h-256v-256h-256v-256h-126v386zM-63 831v386h126v-256h256v-256h386v126h-256v256h-256v256h-256v386h126v-256h256v-256h256 v-256h256v-386h-256v-256h-126v256h-256v256h-256zM449 -319h256v256h256v256h126v-386h-256v-256h-256v-256h-126v386zM449 1343v386h126v-256h256v-256h256v-386h-126v256h-256v256h-256z" />
<glyph unicode="U" horiz-adv-x="512" d="M-63 -193v386h256v256h256v256h126v-386h-256v-256h-256v-126h256v-256h256v-386h-126v256h-256v256h-256zM-63 319v386h256v256h256v126h-256v256h-256v386h126v-256h256v-256h256v-386h-256v-256h-256v-256h-126z" />
<glyph unicode="V" d="M-63 -193v386h256v126h-256v386h126v-256h256v-386h-256v-256h-126zM-63 -319h256v256h256v256h256v126h-256v256h-256v256h-256v386h126v-256h386v256h256v126h-256v386h126v-256h256v-256h386v126h-256v386h126v-256h256v-386h-256v-256h-126v256h-386v-256h-256v-126 h256v-256h256v-256h256v-386h-126v256h-386v-256h-256v-256h-256v-256h-126v386zM-63 1343v386h126v-256h256v-386h-126v256h-256zM449 -319h256v256h126v-256h256v-386h-126v256h-386v-256h-126v386zM705 575v386h126v-256h386v256h256v256h256v126h-256v386h126v-256h256 v-256h256v-386h-126v256h-386v-256h-256v-256h-256v-126h256v-256h256v-256h256v-256h256v-386h-126v256h-256v256h-256v256h-256v256h-256v256h-256zM1217 -63h126v-256h256v-386h-126v256h-256v386zM1473 319v386h256v256h126v-256h256v-386h-126v256h-386v-126h256v-256 h256v-386h-126v256h-256v256h-256z" />
<glyph unicode="W" d="M-63 -193v386h256v256h256v126h-256v256h-256v386h126v-256h256v-256h256v-386h-256v-256h-256v-126h256v-256h386v256h126v-256h386v256h126v-386h-256v-256h-126v256h-386v-256h-126v256h-256v256h-256zM-63 1343v386h126v-256h256v-256h256v-256h256v-256h256v-256 h256v-256h386v126h-256v256h-256v386h256v256h256v256h256v256h126v-386h-256v-256h-256v-256h-256v-126h256v-256h386v256h126v-386h-256v-256h-256v-256h-126v256h-386v-256h-126v256h-386v-256h-126v386h256v256h126v-256h386v126h-256v256h-256v256h-256v256h-256v256 h-256zM449 1343v386h126v-256h256v-256h386v256h256v256h126v-386h-256v-256h-256v-256h-126v256h-256v256h-256zM1473 -319h256v256h256v256h126v-386h-256v-256h-256v-256h-126v386zM1729 575v386h256v256h126v-386h-256v-256h-126z" />
<glyph unicode="X" d="M-63 -193v386h256v256h126v-386h-256v-126h256v-386h-126v256h-256zM-63 831v386h256v126h-256v386h126v-256h386v256h126v-386h-256v-126h386v256h126v-256h256v-256h256v-386h-126v256h-386v-256h-256v-126h256v-386h-126v256h-256v256h-256v386h126v-256h386v256h256 v126h-386v-256h-126v256h-386v-256h-126zM449 -193v386h126v-256h386v256h256v126h-256v386h126v-256h386v256h126v-386h-256v-126h256v-386h-256v-126h386v256h256v126h-256v386h126v-256h256v-386h-256v-256h-256v-256h-126v256h-256v386h256v126h-386v-256h-256v-126h256 v-386h-126v256h-386v-256h-126v386h256v126h-256zM1217 1087v386h256v256h126v-256h256v-386h-126v256h-386v-126h256v-256h386v256h126v-386h-256v-126h256v-386h-126v256h-256v256h-256v256h-256z" />
<glyph unicode="Y" horiz-adv-x="512" d="M-63 -193v386h256v126h-256v386h126v-256h256v-386h-256v-256h-126zM-63 -319h256v256h256v256h126v-386h-256v-256h-256v-256h-126v386zM-63 831v386h256v256h256v256h126v-386h-256v-256h-256v-256h-126zM193 575v386h256v256h126v-386h-256v-126h256v-386h-126v256 h-256z" />
<glyph unicode="Z" d="M-63 -319h256v256h256v126h-256v256h-256v386h126v-256h386v256h256v256h256v126h-256v386h126v-256h256v-386h-256v-256h-256v-256h-256v-126h256v-386h-256v-256h-256v-256h-126v386zM193 575v386h256v126h-256v386h256v256h126v-386h-256v-126h256v-386h-256v-256 h-126zM449 -319h256v256h256v126h-256v386h256v256h256v256h256v126h-256v256h-256v386h126v-256h386v256h126v-386h-256v-126h256v-386h-256v-256h-256v-256h-256v-126h256v-386h-256v-126h256v-386h-126v256h-386v-256h-126v386zM1217 -63h256v126h-256v386h256v256h256 v256h256v126h-256v386h126v-256h256v-386h-256v-126h256v-386h-126v256h-386v-256h-256v-126h256v-386h-256v-256h-126v386zM1473 -319h256v256h256v126h-256v386h126v-256h256v-386h-256v-126h256v-386h-126v256h-386v-256h-126v386z" />
<glyph unicode="[" horiz-adv-x="512" d="M-63 -193v386h256v256h256v126h-256v386h126v-256h256v-386h-256v-256h-256v-256h-126zM-63 831v386h256v256h256v256h126v-386h-256v-256h-256v-256h-126zM193 -63h126v-256h256v-386h-126v256h-256v386z" />
<glyph unicode="\" horiz-adv-x="1024" d="M-63 -193v386h126v-256h256v-256h256v-386h-126v256h-256v256h-256zM-63 319v386h126v-256h386v256h256v126h-256v256h-256v256h-256v386h126v-256h256v-256h256v-256h256v-256h256v-386h-126v256h-386v-256h-256v-126h256v-256h256v-256h256v-386h-126v256h-256v256 h-256v256h-256v256h-256zM-63 831v386h126v-256h256v-386h-126v256h-256zM449 1343v386h126v-256h256v-256h256v-386h-126v256h-256v256h-256zM705 63v386h126v-256h256v-386h-126v256h-256z" />
<glyph unicode="]" horiz-adv-x="512" d="M-63 319v386h256v256h256v256h126v-386h-256v-256h-256v-126h256v-386h-126v256h-256zM-63 -319h256v256h256v256h126v-386h-256v-256h-256v-256h-126v386zM-63 1343v386h126v-256h256v-386h-126v256h-256z" />
<glyph unicode="^" d="M-63 -193v386h126v-256h386v256h256v256h256v256h126v-256h256v-256h256v-256h256v-256h256v-386h-126v256h-256v256h-256v256h-256v256h-386v-256h-256v-256h-256v-256h-256v-256h-126v386h256v126h-256zM-63 319v386h256v126h-256v386h126v-256h386v256h256v256h256 v256h126v-256h256v-256h256v-256h256v-386h-126v256h-256v256h-256v256h-386v-256h-256v-256h-256v-256h-256v-256h-126zM193 63v386h256v256h256v256h256v256h126v-256h256v-256h256v-256h386v256h126v-386h-256v-126h256v-386h-126v256h-256v256h-256v256h-256v256h-386 v-256h-256v-256h-256v-256h-126zM193 1087v386h256v256h126v-386h-256v-256h-126zM449 -319h256v256h256v256h126v-256h256v-256h256v-386h-126v256h-256v256h-386v-256h-256v-256h-126v386zM1473 1343v386h126v-256h256v-256h256v-386h-126v256h-256v256h-256z" />
<glyph unicode="_" horiz-adv-x="512" d="M-63 319v386h256v256h256v126h-256v386h256v256h126v-386h-256v-126h256v-386h-256v-256h-256v-256h-126zM-63 -319h256v256h256v126h-256v386h256v256h126v-386h-256v-126h256v-386h-256v-256h-256v-256h-126v386z" />
<glyph unicode="`" horiz-adv-x="512" d="M-63 -193v386h126v-256h256v-256h256v-386h-126v256h-256v256h-256zM-63 319v386h126v-256h256v-256h256v-386h-126v256h-256v256h-256zM-63 831v386h126v-256h386v256h126v-386h-256v-256h-126v256h-256zM-63 1343v386h126v-256h386v256h126v-386h-256v-256h-126v256 h-256z" />
<glyph unicode="a" horiz-adv-x="512" d="M-63 -193v386h126v-256h256v-256h256v-386h-126v256h-256v256h-256zM-63 319v386h126v-256h256v-256h256v-386h-126v256h-256v256h-256zM-63 831v386h126v-256h256v-256h256v-386h-126v256h-256v256h-256zM-63 1343v386h126v-256h256v-256h256v-386h-126v256h-256v256 h-256z" />
<glyph unicode="b" d="M-63 -193v386h256v256h256v256h126v-256h256v-256h256v-256h256v-256h386v256h256v126h-256v256h-256v256h-256v386h126v-256h256v-256h256v-256h256v-386h-256v-256h-256v-256h-126v256h-256v256h-256v256h-256v256h-386v-256h-256v-256h-126zM-63 319v386h256v126h-256 v386h126v-256h256v-386h-256v-256h-126zM-63 -319h256v256h256v256h126v-256h256v-256h256v-386h-126v256h-256v256h-386v-256h-256v-256h-126v386zM-63 1343v386h126v-256h256v-256h256v-256h386v256h256v256h256v256h126v-386h-256v-256h-256v-256h-256v-126h256v-256h256 v-256h256v-386h-126v256h-256v256h-256v256h-256v256h-256v256h-256v256h-256zM449 1343v386h126v-256h386v256h126v-386h-256v-256h-126v256h-256zM1473 831v386h256v256h256v256h126v-386h-256v-256h-256v-126h256v-256h256v-386h-126v256h-256v256h-256z" />
<glyph unicode="c" d="M-63 -193v386h126v-256h256v-256h256v-386h-126v256h-256v256h-256zM-63 319v386h256v126h-256v386h126v-256h256v-386h-256v-256h-126zM-63 1343v386h126v-256h256v-256h256v-256h256v-386h-256v-256h-256v-126h256v-256h386v256h126v-256h256v-386h-256v-256h-126v386 h256v126h-386v-256h-126v256h-256v256h-256v386h256v256h256v126h-256v256h-256v256h-256zM705 63v386h256v256h256v256h126v-386h-256v-126h256v-256h256v-256h386v256h126v-386h-256v-256h-256v-256h-126v386h256v126h-256v256h-256v256h-386v-256h-126zM705 1087v386h256 v256h126v-386h-256v-126h386v256h126v-256h256v-256h256v-386h-256v-126h386v256h126v-386h-256v-256h-126v256h-256v386h256v126h-256v256h-386v-256h-126v256h-256zM1473 1343v386h126v-256h256v-256h256v-386h-126v256h-256v256h-256z" />
<glyph unicode="d" d="M-63 -193v386h126v-256h256v-386h-256v-256h-126v386h256v126h-256zM-63 319v386h256v256h256v256h256v256h256v256h126v-386h-256v-256h-256v-256h-256v-256h-256v-256h-126zM-63 831v386h256v256h256v256h126v-386h-256v-256h-256v-256h-126zM193 63v386h256v256h256 v256h256v256h256v256h256v256h126v-386h-256v-256h-256v-256h-256v-256h-256v-256h-256v-126h386v256h126v-256h256v-256h386v256h126v-256h256v-386h-256v-256h-126v386h256v126h-386v-256h-126v256h-256v256h-386v-256h-126v256h-256zM449 -319h256v256h126v-256h256v-386 h-126v256h-386v-256h-126v386zM961 319v386h256v256h256v256h256v256h256v256h126v-386h-256v-256h-256v-256h-256v-256h-256v-126h386v256h256v256h256v256h126v-386h-256v-256h-256v-256h-256v-256h-126v256h-256zM1729 63v386h256v256h126v-386h-256v-126h256v-386h-126 v256h-256z" />
<glyph unicode="e" horiz-adv-x="512" d="M-63 -319h256v256h256v126h-256v256h-256v386h126v-256h256v-256h256v-386h-256v-256h-256v-256h-126v386zM-63 831v386h126v-256h256v-256h256v-386h-126v256h-256v256h-256zM-63 1343v386h126v-256h256v-256h256v-386h-126v256h-256v256h-256z" />
<glyph unicode="f" d="M-63 -193v386h256v126h-256v386h126v-256h256v-386h-256v-256h-126zM-63 831v386h126v-256h256v-256h386v256h256v256h256v126h-256v386h126v-256h256v-386h-256v-256h-256v-256h-256v-256h-126v256h-256v256h-256zM-63 1343v386h126v-256h256v-256h386v126h-256v386h126 v-256h256v-386h-256v-256h-126v256h-256v256h-256zM193 -63h256v256h256v256h256v256h256v256h256v256h256v126h-256v386h126v-256h256v-386h-256v-256h-256v-256h-256v-256h-256v-256h-256v-256h-256v-126h256v-386h-126v256h-256v386zM705 -63h256v256h256v256h256v256 h126v-256h256v-256h256v-386h-126v256h-256v256h-386v-256h-256v-256h-256v-126h256v-386h-126v256h-256v386zM1217 -63h256v256h126v-256h256v-256h256v-386h-126v256h-256v256h-386v-126h256v-386h-126v256h-256v386zM1729 575v386h256v256h126v-386h-256v-126h256v-386 h-126v256h-256z" />
<glyph unicode="g" d="M-63 -193v386h126v-256h256v-256h256v-386h-126v256h-256v256h-256zM-63 319v386h256v256h256v256h256v256h256v256h126v-386h-256v-256h-256v-256h-256v-256h-256v-256h-126zM-63 831v386h256v256h256v256h126v-386h-256v-256h-256v-256h-126zM193 63v386h256v256h256 v256h126v-256h256v-256h256v-386h-126v256h-256v256h-386v-256h-256v-126h256v-256h256v-256h256v-386h-126v256h-256v256h-256v256h-256zM705 63v386h126v-256h256v-256h386v256h256v126h-256v256h-256v256h-256v386h256v256h126v-256h256v-256h256v-256h256v-386h-126v256 h-256v256h-256v256h-386v-126h256v-256h256v-256h256v-386h-256v-256h-256v-256h-126v256h-256v256h-256zM1473 -319h256v256h256v256h126v-386h-256v-256h-256v-256h-126v386zM1473 1343v386h126v-256h256v-256h256v-386h-126v256h-256v256h-256z" />
<glyph unicode="h" horiz-adv-x="1024" d="M-63 -193v386h126v-256h386v126h-256v256h-256v386h126v-256h256v-256h256v-386h-256v-256h-126v256h-256zM-63 831v386h126v-256h386v126h-256v256h-256v386h126v-256h256v-256h256v-386h-256v-256h-126v256h-256zM449 319v386h256v256h126v-256h256v-386h-126v256h-386 v-126h256v-256h256v-386h-126v256h-256v256h-256zM449 -319h256v256h126v-256h256v-386h-126v256h-386v-256h-126v386zM449 1343v386h126v-256h256v-256h256v-386h-126v256h-256v256h-256z" />
<glyph unicode="i" horiz-adv-x="512" d="M-63 -193v386h126v-256h256v-256h256v-386h-126v256h-256v256h-256zM-63 319v386h126v-256h256v-256h256v-386h-126v256h-256v256h-256zM-63 831v386h256v256h256v256h126v-386h-256v-256h-256v-126h256v-256h256v-386h-126v256h-256v256h-256z" />
<glyph unicode="j" d="M-63 -193v386h256v256h256v256h256v256h256v256h256v126h-256v386h126v-256h256v-386h-256v-256h-256v-256h-256v-256h-256v-256h-256v-256h-126zM-63 319v386h256v256h256v256h256v126h-386v-256h-256v-256h-126v386h256v256h256v256h126v-256h256v-386h-256v-256h-256 v-256h-256v-256h-126zM193 -63h256v256h256v256h256v256h256v256h256v256h256v126h-256v386h126v-256h256v-386h-256v-256h-256v-256h-256v-256h-256v-256h-256v-256h-256v-126h256v-386h-126v256h-256v386zM705 -63h256v256h256v256h256v256h256v256h256v256h126v-386h-256 v-256h-256v-256h-256v-256h-256v-256h-256v-126h256v-386h-126v256h-256v386zM1217 -63h256v256h256v256h256v256h126v-386h-256v-256h-256v-256h-256v-126h386v256h256v256h126v-386h-256v-256h-256v-256h-126v256h-256v386z" />
<glyph unicode="k" d="M-63 -193v386h126v-256h256v-256h256v-386h-126v256h-256v256h-256zM-63 319v386h126v-256h386v126h-256v256h-256v386h126v-256h256v-256h256v-386h-256v-256h-126v256h-256zM-63 1343v386h126v-256h256v-386h-126v256h-256zM449 -193v386h256v256h256v256h256v256h256 v256h126v-256h256v-256h256v-386h-126v256h-256v256h-386v-256h-256v-256h-256v-256h-256v-126h256v-256h256v-386h-126v256h-256v256h-256zM449 831v386h256v126h-256v386h126v-256h256v-386h-256v-126h386v256h256v126h-256v386h126v-256h256v-386h-256v-256h-256v-256 h-126v256h-256zM961 -193v386h256v256h256v256h126v-256h256v-386h-256v-126h256v-256h256v-386h-126v256h-256v256h-256v386h256v126h-386v-256h-256v-126h256v-256h256v-386h-126v256h-256v256h-256zM1473 1343v386h126v-256h256v-256h256v-386h-126v256h-256v256h-256z " />
<glyph unicode="l" horiz-adv-x="1024" d="M-63 -193v386h126v-256h256v-256h256v-386h-126v256h-256v256h-256zM-63 319v386h256v126h-256v386h126v-256h256v-386h-256v-126h256v-256h256v-256h256v-256h256v-386h-126v256h-256v256h-256v256h-256v256h-256zM-63 1343v386h126v-256h256v-256h256v-256h256v-386 h-256v-126h256v-256h256v-386h-126v256h-256v256h-256v386h256v126h-256v256h-256v256h-256zM449 1343v386h126v-256h256v-256h256v-386h-126v256h-256v256h-256z" />
<glyph unicode="m" d="M-63 -193v386h126v-256h256v-386h-256v-256h-126v386h256v126h-256zM-63 319v386h126v-256h256v-256h386v126h-256v386h126v-256h256v-386h-256v-256h-126v256h-256v256h-256zM-63 831v386h126v-256h386v126h-256v386h256v256h126v-256h386v256h126v-386h-256v-256h-126 v256h-386v-126h256v-386h-256v-256h-126v256h-256zM705 -63h256v256h126v-256h386v126h-256v256h-256v256h-256v386h126v-256h386v126h-256v386h256v256h126v-256h386v126h-256v386h126v-256h256v-386h-256v-256h-126v256h-386v-126h256v-386h-256v-126h256v-256h256v-386 h-256v-256h-126v256h-386v-126h256v-386h-126v256h-256v386zM1473 319v386h126v-256h256v-256h256v-386h-126v256h-256v256h-256zM1473 -319h256v256h126v-256h256v-386h-126v256h-386v-256h-126v386zM1729 575v386h256v256h126v-386h-256v-126h256v-386h-126v256h-256z" />
<glyph unicode="n" d="M-63 -193v386h256v256h126v-256h386v256h256v126h-256v386h256v256h126v-386h-256v-126h256v-386h-256v-126h256v-256h256v-256h256v-386h-126v256h-256v256h-256v256h-386v-256h-256v-256h-256v-256h-126v386h256v256h256v126h-386v-256h-126zM-63 319v386h256v256h256 v256h256v126h-256v386h126v-256h256v-386h-256v-256h-256v-126h256v-386h-126v256h-386v-256h-126zM-63 831v386h256v256h126v-386h-256v-256h-126zM449 -319h256v256h126v-256h256v-386h-126v256h-386v-256h-126v386zM961 1343v386h126v-256h256v-256h386v256h256v256h126 v-386h-256v-126h256v-386h-126v256h-386v-256h-256v-126h256v-386h-256v-256h-126v386h256v126h-256v386h256v126h-256v256h-256zM1473 -193v386h256v256h256v126h-256v386h126v-256h256v-386h-256v-256h-256v-126h256v-386h-126v256h-256z" />
<glyph unicode="o" horiz-adv-x="512" d="M-63 -193v386h256v256h256v126h-256v256h-256v386h126v-256h256v-256h256v-386h-256v-256h-256v-256h-126zM-63 -319h256v256h256v256h126v-386h-256v-256h-256v-256h-126v386zM-63 1343v386h126v-256h256v-256h256v-386h-126v256h-256v256h-256z" />
<glyph unicode="p" d="M-63 -193v386h256v256h256v256h256v256h256v256h256v126h-256v386h126v-256h256v-386h-256v-256h-256v-256h-256v-256h-256v-256h-256v-256h-126zM-63 319v386h256v256h256v256h256v126h-256v386h126v-256h256v-386h-256v-256h-256v-256h-256v-256h-126zM-63 -319h256 v256h256v256h256v256h256v256h256v256h256v256h126v-256h256v-256h256v-386h-126v256h-256v256h-386v-256h-256v-256h-256v-256h-256v-256h-256v-256h-256v-256h-126v386zM-63 831v386h256v126h-256v386h126v-256h256v-386h-256v-256h-126zM449 -319h256v256h256v256h256 v256h256v256h126v-256h256v-256h256v-386h-126v256h-256v256h-386v-256h-256v-256h-256v-256h-256v-256h-126v386zM961 -319h256v256h256v256h126v-256h256v-256h256v-386h-126v256h-386v-256h-126v386h256v126h-386v-256h-256v-256h-126v386zM1473 1343v386h126v-256h256 v-256h256v-386h-126v256h-256v256h-256z" />
<glyph unicode="q" d="M-63 -193v386h256v256h256v256h126v-256h386v126h-256v256h-386v-256h-256v-256h-126v386h256v256h256v256h126v-256h256v-256h386v256h126v-386h-256v-256h-256v-256h-126v256h-386v-256h-256v-256h-126zM-63 -319h256v256h256v256h126v-256h386v256h256v256h256v256 h256v256h256v256h126v-386h-256v-256h-256v-256h-256v-126h386v256h256v256h126v-386h-256v-256h-256v-256h-126v256h-386v-256h-256v-256h-126v256h-386v-256h-256v-256h-126v386zM-63 831v386h256v256h256v256h126v-256h386v256h126v-386h-256v-256h-126v256h-386v-256 h-256v-256h-126zM961 -319h256v256h126v-256h386v256h256v256h126v-386h-256v-256h-256v-256h-126v256h-386v-256h-126v386zM961 831v386h256v256h126v-256h386v256h256v256h126v-386h-256v-256h-256v-256h-126v256h-386v-256h-126z" />
<glyph unicode="r" horiz-adv-x="1024" d="M-63 -319h256v256h256v126h-256v256h-256v386h126v-256h256v-256h256v-386h-256v-256h-256v-256h-126v386zM-63 831v386h126v-256h256v-256h256v-256h256v-256h256v-386h-256v-256h-256v-256h-126v386h256v256h256v126h-256v256h-256v256h-256v256h-256zM-63 1343v386 h126v-256h256v-256h386v256h256v256h126v-386h-256v-256h-256v-256h-126v256h-256v256h-256zM705 575v386h256v256h126v-386h-256v-126h256v-386h-126v256h-256z" />
<glyph unicode="s" horiz-adv-x="1024" d="M-63 -193v386h256v256h256v256h126v-386h-256v-256h-256v-126h256v-256h386v256h256v256h126v-386h-256v-256h-256v-256h-126v256h-256v256h-256zM-63 319v386h256v256h256v256h256v256h256v256h126v-386h-256v-256h-256v-126h256v-256h256v-386h-256v-256h-256v-256 h-126v386h256v256h256v126h-256v256h-386v-256h-256v-256h-126zM-63 831v386h256v256h256v256h126v-386h-256v-256h-256v-256h-126z" />
<glyph unicode="t" horiz-adv-x="1024" d="M-63 -193v386h256v256h256v256h126v-256h256v-386h-256v-256h-256v-256h-256v-256h-126v386h256v256h256v256h256v126h-386v-256h-256v-256h-126zM-63 319v386h256v126h-256v386h126v-256h256v-386h-256v-256h-126zM-63 1343v386h126v-256h256v-256h256v-256h256v-256 h256v-386h-126v256h-256v256h-256v256h-256v256h-256zM449 -319h256v256h256v256h126v-386h-256v-256h-256v-256h-126v386zM449 1343v386h126v-256h256v-256h256v-386h-126v256h-256v256h-256z" />
<glyph unicode="u" horiz-adv-x="512" d="M-63 -319h256v256h256v126h-256v256h-256v386h126v-256h256v-256h256v-386h-256v-256h-256v-256h-126v386zM-63 831v386h256v256h256v256h126v-386h-256v-256h-256v-126h256v-256h256v-386h-126v256h-256v256h-256z" />
<glyph unicode="v" d="M-63 -193v386h256v256h256v126h-386v-256h-126v386h256v256h126v-256h256v-386h-256v-126h256v-256h386v256h256v256h256v256h126v-386h-256v-126h256v-256h256v-256h256v-386h-126v256h-256v256h-256v256h-386v-256h-256v-256h-256v-256h-126v386h256v126h-256v256h-386 v-256h-126zM-63 -319h256v256h126v-386h-256v-256h-126v386zM-63 831v386h256v256h256v256h126v-386h-256v-126h256v-256h256v-256h386v256h256v256h256v256h256v256h126v-386h-256v-256h-256v-256h-256v-256h-256v-256h-256v-256h-126v386h256v126h-256v256h-256v256h-386 v-256h-126zM705 1087v386h256v256h126v-386h-256v-126h386v256h256v256h126v-386h-256v-256h-256v-256h-126v256h-256zM961 -319h256v256h126v-256h256v-386h-126v256h-386v-256h-126v386zM1729 63v386h256v256h126v-386h-256v-126h256v-386h-126v256h-256zM1729 575v386 h256v256h126v-386h-256v-256h-126z" />
<glyph unicode="w" d="M-63 -193v386h256v256h256v126h-256v256h-256v386h256v256h256v256h126v-256h386v256h126v-256h256v-386h-126v256h-386v-256h-126v256h-386v-256h-256v-126h256v-256h256v-386h-256v-256h-256v-256h-126zM-63 -319h256v256h256v256h256v256h256v256h256v126h-386v-256 h-126v256h-256v386h126v-256h386v256h126v-256h386v256h126v-256h256v-256h256v-386h-126v256h-386v-256h-256v-126h256v-256h256v-256h256v-386h-126v256h-256v256h-256v256h-256v386h256v256h256v126h-386v-256h-256v-256h-256v-256h-256v-256h-256v-256h-256v-256h-126 v386zM449 -319h256v256h256v256h126v-256h256v-256h256v-386h-126v256h-256v256h-386v-256h-256v-256h-126v386zM1473 1343v386h126v-256h256v-256h256v-386h-126v256h-256v256h-256zM1729 63v386h126v-256h256v-386h-126v256h-256z" />
<glyph unicode="x" d="M-63 -193v386h126v-256h386v126h-256v386h256v256h256v256h126v-386h-256v-126h256v-256h386v256h126v-386h-256v-256h-256v-256h-126v386h256v126h-256v256h-386v-126h256v-386h-256v-126h256v-386h-126v256h-386v-256h-126v386h256v126h-256zM-63 831v386h256v256h126 v-386h-256v-126h386v256h256v126h-256v386h126v-256h386v256h126v-386h-256v-256h-256v-256h-256v-256h-126v256h-256zM961 319v386h638v-256h386v256h126v-386h-256v-126h256v-386h-126v256h-386v-256h-126v386h256v126h-256v256h-386v-256h-126zM961 831v386h126v-256h386 v256h126v-256h386v126h-256v256h-386v-256h-126v386h256v256h126v-256h256v-256h256v-386h-256v-256h-126v256h-768zM1217 -63h126v-256h386v256h126v-386h-256v-256h-126v256h-256v386z" />
<glyph unicode="y" horiz-adv-x="512" d="M-63 -193v386h126v-256h256v-256h256v-386h-126v256h-256v256h-256zM-63 319v386h256v126h-256v386h126v-256h256v-386h-256v-256h-126zM-63 1343v386h126v-256h256v-256h256v-386h-126v256h-256v256h-256zM193 63v386h256v256h126v-386h-256v-126h256v-386h-126v256 h-256z" />
<glyph unicode="z" d="M-63 -193v386h256v126h-256v386h126v-256h256v-256h386v256h256v256h256v256h126v-256h386v256h256v256h126v-386h-256v-126h256v-386h-126v256h-386v-256h-126v256h-386v-256h-256v-256h-256v-256h-126v256h-386v-256h-126zM-63 831v386h256v256h126v-256h256v-386h-126 v256h-386v-256h-126zM193 -63h126v-256h386v256h256v256h256v256h126v-256h386v256h126v-386h-256v-256h-126v256h-386v-256h-256v-126h256v-386h-126v256h-386v-256h-126v256h-256v386zM193 575v386h126v-256h386v256h256v256h256v126h-256v386h126v-256h256v-256h386v256 h256v256h126v-386h-256v-256h-256v-256h-126v256h-386v-256h-256v-256h-256v-256h-126v256h-256zM1217 -63h126v-256h386v256h256v256h126v-386h-256v-126h256v-386h-126v256h-386v-256h-126v256h-256v386z" />
<glyph unicode="{" horiz-adv-x="512" d="M-63 319v386h256v256h256v256h126v-386h-256v-256h-256v-126h256v-256h256v-386h-126v256h-256v256h-256zM-63 -319h256v256h126v-256h256v-386h-126v256h-386v-256h-126v386zM-63 1343v386h126v-256h386v256h126v-386h-256v-256h-126v256h-256z" />
<glyph unicode="|" horiz-adv-x="1024" d="M-63 -193v386h126v-256h256v-256h256v-386h-126v256h-256v256h-256zM-63 319v386h256v256h126v-256h256v-256h386v256h126v-386h-256v-256h-126v256h-256v256h-386v-256h-126zM-63 1343v386h126v-256h256v-256h256v-256h256v-386h-126v256h-256v256h-256v256h-256z M193 63v386h126v-256h256v-256h256v-256h256v-386h-126v256h-256v256h-256v256h-256zM449 1343v386h126v-256h256v-256h256v-386h-126v256h-256v256h-256z" />
<glyph unicode="}" horiz-adv-x="512" d="M-63 -193v386h256v256h256v126h-256v256h-256v386h126v-256h256v-256h256v-386h-256v-256h-256v-256h-126zM-63 -319h256v256h126v-256h256v-386h-126v256h-386v-256h-126v386zM-63 1343v386h126v-256h386v256h126v-386h-256v-256h-126v256h-256z" />
<glyph unicode="~" d="M-63 -193v386h256v126h-256v386h126v-256h256v-386h-256v-256h-126zM-63 831v386h126v-256h256v-256h256v-256h256v-256h256v-386h-126v256h-256v256h-256v256h-256v256h-256zM-63 1343v386h126v-256h256v-256h256v-256h256v-256h386v256h126v-386h-256v-256h-126v256 h-256v256h-256v256h-256v256h-256zM193 -63h256v256h126v-256h256v-256h386v256h256v126h-256v386h256v256h126v-256h256v-256h256v-386h-126v256h-256v256h-386v-126h256v-386h-256v-256h-256v-256h-126v256h-256v256h-386v-126h256v-386h-126v256h-256v386zM449 1343v386 h126v-256h256v-386h-126v256h-256zM961 831v386h256v256h256v256h126v-386h-256v-256h-256v-256h-126zM1473 -319h256v256h126v-256h256v-386h-126v256h-386v-256h-126v386zM1473 831v386h256v256h126v-256h256v-386h-126v256h-386v-126h256v-256h256v-386h-126v256h-256 v256h-256z" />
<glyph unicode="&#xa1;" horiz-adv-x="1024" d="M-63 -193v386h256v256h256v256h256v256h256v256h126v-386h-256v-256h-256v-256h-256v-256h-256v-126h256v-256h256v-386h-126v256h-256v256h-256zM-63 319v386h256v256h256v256h256v256h256v256h126v-386h-256v-256h-256v-256h-256v-256h-256v-256h-126zM-63 831v386h256 v256h256v256h126v-386h-256v-256h-256v-256h-126zM449 -193v386h256v256h256v256h126v-386h-256v-256h-256v-126h256v-256h256v-386h-126v256h-256v256h-256z" />
<glyph unicode="&#xa2;" d="M-63 -193v386h256v256h256v126h-386v-256h-126v386h256v256h126v-256h256v-386h-256v-256h-256v-126h256v-256h386v256h256v256h256v256h126v-256h256v-256h256v-256h256v-386h-126v256h-256v256h-386v-256h-256v-256h-126v386h256v256h256v126h-386v-256h-256v-256h-256 v-256h-126v256h-256v256h-256zM-63 1343v386h126v-256h256v-256h386v256h256v256h126v-386h-256v-256h-256v-126h256v-256h386v256h256v256h126v-386h-256v-256h-256v-256h-256v-256h-256v-256h-126v386h256v256h256v126h-256v256h-256v256h-256v256h-256zM961 831v386h256 v256h256v256h126v-256h256v-256h256v-386h-256v-256h-256v-126h386v256h126v-386h-256v-256h-126v256h-256v386h256v256h256v126h-256v256h-386v-256h-256v-256h-126z" />
<glyph unicode="&#xa3;" horiz-adv-x="512" d="M-63 -193v386h256v126h-256v386h126v-256h256v-256h256v-386h-256v-256h-256v-256h-126v386h256v256h256v126h-386v-256h-126zM-63 831v386h256v256h256v256h126v-386h-256v-256h-256v-126h386v256h126v-386h-256v-126h256v-386h-126v256h-256v256h-256z" />
<glyph unicode="&#xa5;" horiz-adv-x="512" d="M-63 -193v386h126v-256h256v-256h256v-386h-126v256h-256v256h-256zM-63 319v386h256v256h256v126h-256v256h-256v386h126v-256h256v-256h256v-386h-256v-256h-256v-256h-126zM193 63v386h256v256h126v-386h-256v-126h256v-386h-126v256h-256z" />
<glyph unicode="&#xa7;" horiz-adv-x="512" d="M-63 319v386h256v256h126v-256h256v-386h-256v-256h-126v256h-256zM-63 -319h256v256h256v256h126v-386h-256v-256h-256v-256h-126v386zM-63 831v386h256v256h256v256h126v-386h-256v-256h-256v-256h-126zM63 449h386v126h-386v-126z" />
<glyph unicode="&#xa8;" horiz-adv-x="512" d="M-63 -193v386h126v-256h256v-256h256v-386h-126v256h-256v256h-256zM-63 319v386h256v256h256v126h-256v256h-256v386h126v-256h256v-256h256v-386h-256v-256h-256v-126h256v-256h256v-386h-126v256h-256v256h-256z" />
<glyph unicode="&#xa9;" d="M-63 -193v386h126v-256h256v-256h256v-386h-126v256h-256v256h-256zM-63 319v386h126v-256h256v-386h-126v256h-256zM-63 831v386h126v-256h256v-256h256v-256h256v-386h-256v-126h256v-256h256v-386h-126v256h-256v256h-256v386h256v126h-256v256h-256v256h-256z M-63 1343v386h126v-256h256v-256h256v-256h256v-256h256v-256h386v256h126v-256h256v-256h256v-386h-126v256h-256v256h-386v-256h-256v-126h256v-256h256v-386h-126v256h-256v256h-256v386h256v126h-256v256h-256v256h-256v256h-256v256h-256zM449 1343v386h126v-256h256 v-256h256v-256h386v256h126v-256h256v-256h256v-386h-126v256h-256v256h-386v-256h-126v256h-256v256h-256v256h-256zM961 1343v386h126v-256h256v-386h-126v256h-256zM1473 -193v386h126v-256h256v-256h256v-386h-126v256h-256v256h-256zM1473 1343v386h126v-256h256v-256 h256v-386h-126v256h-256v256h-256z" />
<glyph unicode="&#xaa;" horiz-adv-x="1024" d="M-63 -193v386h256v126h-256v386h256v256h256v256h256v256h256v256h126v-386h-256v-256h-256v-256h-256v-256h-256v-126h386v256h126v-386h-256v-256h-256v-256h-126zM-63 -319h256v256h256v256h256v256h256v126h-256v386h126v-256h256v-386h-256v-256h-256v-256h-256 v-256h-256v-256h-126v386zM-63 831v386h256v126h-256v386h126v-256h386v256h126v-386h-256v-256h-256v-256h-126zM705 -63h126v-256h256v-386h-126v256h-256v386z" />
<glyph unicode="&#xab;" horiz-adv-x="1024" d="M-63 -193v386h126v-256h386v256h256v126h-256v386h256v256h256v256h126v-386h-256v-256h-256v-126h256v-256h256v-386h-126v256h-386v-256h-256v-126h256v-386h-126v256h-256v256h-256zM-63 319v386h256v256h256v256h256v256h256v256h126v-386h-256v-256h-256v-256h-256 v-256h-256v-126h256v-386h-126v256h-256zM-63 831v386h256v256h256v256h126v-386h-256v-256h-256v-256h-126zM705 -63h126v-256h256v-386h-126v256h-256v386z" />
<glyph unicode="&#xac;" horiz-adv-x="1024" d="M-63 -193v386h256v256h256v256h256v126h-256v256h-256v386h256v256h126v-386h-256v-126h256v-256h386v256h126v-386h-256v-256h-256v-256h-256v-126h256v-256h256v-386h-256v-256h-126v386h256v126h-256v256h-386v-256h-126zM-63 319v386h256v126h-256v386h126v-256h256 v-386h-256v-256h-126zM-63 -319h256v256h126v-386h-256v-256h-126v386zM705 63v386h256v256h126v-386h-256v-126h256v-386h-126v256h-256zM705 1087v386h256v256h126v-386h-256v-256h-126z" />
<glyph unicode="&#xae;" horiz-adv-x="1024" d="M-63 -193v386h126v-256h386v256h256v126h-256v256h-256v256h-256v386h126v-256h256v-256h256v-256h256v-386h-256v-126h386v256h126v-386h-256v-256h-256v-256h-126v386h256v126h-386v-256h-126v256h-256zM-63 319v386h126v-256h256v-386h-126v256h-256zM-63 1343v386 h126v-256h386v256h126v-386h-256v-256h-126v256h-256zM449 831v386h256v256h256v256h126v-386h-256v-256h-256v-256h-126zM705 575v386h256v256h126v-386h-256v-126h256v-386h-126v256h-256z" />
<glyph unicode="&#xaf;" horiz-adv-x="512" d="M-63 319v386h126v-256h256v-256h256v-386h-256v-126h256v-386h-126v256h-256v386h256v126h-256v256h-256zM-63 1343v386h126v-256h256v-256h256v-386h-256v-126h256v-386h-126v256h-256v386h256v126h-256v256h-256z" />
<glyph unicode="&#xb0;" horiz-adv-x="1024" d="M-63 -193v386h126v-256h256v-256h386v256h256v256h126v-386h-256v-256h-256v-256h-126v256h-256v256h-256zM-63 319v386h256v256h256v256h126v-386h-256v-256h-256v-126h256v-386h-126v256h-256zM-63 831v386h256v256h256v256h126v-256h256v-256h256v-386h-126v256h-256 v256h-386v-256h-256v-256h-126zM449 -193v386h256v256h256v126h-256v386h126v-256h256v-386h-256v-256h-256v-256h-126z" />
<glyph unicode="&#xb1;" horiz-adv-x="512" d="M-63 -193v386h256v256h256v256h126v-386h-256v-126h256v-386h-126v256h-386v-256h-126zM-63 319v386h256v126h-256v386h126v-256h386v256h126v-386h-256v-256h-256v-256h-126zM-63 -319h256v256h126v-256h256v-386h-126v256h-386v-256h-126v386zM-63 1343v386h126v-256 h386v256h126v-386h-256v-256h-126v256h-256z" />
<glyph unicode="&#xb4;" horiz-adv-x="512" d="M-63 -193v386h256v256h126v-256h256v-386h-126v256h-386v-256h-126zM-63 -319h256v256h126v-256h256v-386h-126v256h-386v-256h-126v386zM-63 831v386h126v-256h256v-256h256v-386h-126v256h-256v256h-256zM-63 1343v386h126v-256h256v-256h256v-386h-126v256h-256v256 h-256z" />
<glyph unicode="&#xb5;" d="M-63 -193v386h256v126h-256v386h126v-256h256v-386h-256v-256h-126zM-63 -319h256v256h256v256h256v126h-256v256h-256v256h-256v386h126v-256h256v-256h256v-256h256v-386h-256v-256h-256v-256h-256v-256h-126v386zM-63 1343v386h126v-256h256v-256h256v-256h256v-256 h256v-256h386v256h256v256h256v126h-256v256h-256v386h126v-256h256v-256h256v-386h-256v-256h-256v-256h-256v-256h-256v-256h-256v-256h-256v-256h-126v386h256v256h256v256h256v126h-256v256h-256v256h-256v256h-256v256h-256zM449 1343v386h126v-256h256v-256h256v-256 h256v-386h-126v256h-256v256h-256v256h-256zM961 -319h256v256h256v256h256v256h256v256h126v-386h-256v-256h-256v-256h-256v-256h-256v-256h-126v386zM961 1343v386h126v-256h256v-256h256v-386h-126v256h-256v256h-256zM1473 -319h256v256h256v256h126v-386h-256v-256 h-256v-256h-126v386z" />
<glyph unicode="&#xb6;" d="M-63 -193v386h256v126h-256v386h126v-256h256v-386h-256v-256h-126zM-63 -319h256v256h256v256h256v126h-256v386h256v256h256v256h126v-386h-256v-126h256v-256h256v-256h386v126h-256v386h256v256h256v256h126v-386h-256v-256h-256v-126h256v-386h-256v-256h-256v-256 h-126v386h256v126h-256v256h-256v256h-386v-126h256v-386h-256v-256h-256v-256h-256v-256h-126v386zM-63 831v386h256v256h256v256h126v-386h-256v-256h-256v-126h386v256h256v256h256v256h126v-256h386v256h126v-386h-256v-256h-126v256h-386v-256h-256v-256h-256v-256 h-126v256h-256zM449 -319h256v256h256v256h126v-386h-256v-256h-256v-256h-126v386zM1217 575v386h256v256h256v256h256v256h126v-386h-256v-256h-256v-256h-256v-256h-126zM1473 -319h256v256h256v256h126v-386h-256v-256h-256v-256h-126v386z" />
<glyph unicode="&#xb7;" horiz-adv-x="1024" d="M-63 -193v386h256v256h126v-256h256v-386h-256v-256h-256v-256h-126v386h256v256h256v126h-386v-256h-126zM-63 319v386h256v256h126v-256h256v-256h386v256h126v-386h-256v-256h-126v256h-256v256h-386v-256h-126zM-63 831v386h256v256h256v256h126v-386h-256v-256h-256 v-256h-126zM449 -319h256v256h256v256h126v-386h-256v-256h-256v-256h-126v386zM449 831v386h256v256h256v256h126v-386h-256v-256h-256v-126h386v256h126v-386h-256v-256h-126v256h-256z" />
<glyph unicode="&#xb8;" d="M-63 -193v386h256v126h-256v386h126v-256h386v256h256v126h-256v256h-256v256h-256v386h126v-256h256v-256h256v-256h386v256h256v126h-256v386h126v-256h386v256h126v-256h256v-256h256v-386h-126v256h-256v256h-386v-126h256v-256h256v-386h-126v256h-256v256h-386 v-126h256v-386h-126v256h-386v-256h-256v-126h256v-386h-126v256h-386v-126h256v-256h256v-386h-126v256h-256v256h-386v-126h256v-256h256v-386h-126v256h-256v256h-256zM-63 831v386h126v-256h256v-386h-126v256h-256zM449 1343v386h126v-256h256v-386h-126v256h-256z M961 -193v386h126v-256h256v-256h386v126h-256v256h-256v256h-256v386h126v-256h256v-256h256v-256h386v126h-256v256h-256v386h126v-256h256v-256h256v-386h-256v-256h-256v-256h-126v256h-256v256h-256z" />
<glyph unicode="&#xba;" horiz-adv-x="1024" d="M-63 319v386h256v256h256v256h256v256h256v256h126v-386h-256v-256h-256v-256h-256v-256h-256v-126h256v-386h-126v256h-256zM-63 -319h256v256h256v256h256v256h256v126h-256v386h126v-256h256v-386h-256v-256h-256v-256h-256v-256h-256v-256h-126v386zM-63 1343v386 h126v-256h256v-386h-126v256h-256zM705 -63h126v-256h256v-386h-126v256h-256v386z" />
<glyph unicode="&#xbb;" horiz-adv-x="1024" d="M-63 -193v386h256v256h256v126h-256v256h-256v386h126v-256h386v256h256v126h-256v386h126v-256h256v-256h256v-386h-126v256h-386v-256h-256v-126h256v-386h-256v-256h-256v-256h-126zM-63 -319h256v256h256v256h256v256h256v126h-256v386h126v-256h256v-386h-256v-256 h-256v-256h-256v-256h-256v-256h-126v386zM-63 1343v386h126v-256h256v-386h-126v256h-256zM449 -319h256v256h256v256h126v-386h-256v-256h-256v-256h-126v386z" />
<glyph unicode="&#xbf;" horiz-adv-x="1024" d="M-63 -193v386h256v256h256v256h256v126h-256v256h-386v-256h-126v386h256v256h256v256h126v-386h-256v-126h256v-256h386v256h126v-386h-256v-256h-256v-256h-256v-256h-256v-126h256v-256h256v-386h-126v256h-256v256h-256zM-63 319v386h256v256h126v-386h-256v-256 h-126zM449 -193v386h256v256h256v256h126v-386h-256v-256h-256v-126h256v-256h256v-386h-126v256h-256v256h-256zM705 1087v386h256v256h126v-386h-256v-256h-126z" />
<glyph unicode="&#xc0;" d="M-63 -319h256v256h256v256h256v256h256v256h256v256h256v256h256v256h256v256h126v-386h-256v-256h-256v-256h-256v-256h-256v-256h-256v-256h-256v-256h-256v-256h-256v-256h-126v386zM449 -319h256v256h126v-256h256v-386h-126v256h-386v-256h-126v386zM961 -193v386 h256v256h256v256h256v256h256v256h126v-386h-256v-256h-256v-256h-256v-256h-256v-126h256v-256h256v-386h-126v256h-256v256h-256zM1473 -193v386h126v-256h256v-256h256v-386h-126v256h-256v256h-256zM1729 63v386h256v256h126v-386h-256v-126h256v-386h-126v256h-256z " />
<glyph unicode="&#xc1;" horiz-adv-x="512" d="M-63 -193v386h256v256h256v256h126v-386h-256v-256h-256v-126h256v-256h256v-386h-126v256h-256v256h-256zM-63 319v386h256v126h-256v386h126v-256h256v-386h-256v-256h-126zM-63 1343v386h126v-256h256v-256h256v-386h-126v256h-256v256h-256z" />
<glyph unicode="&#xc2;" d="M-63 -193v386h256v256h256v256h256v126h-256v256h-256v256h-256v386h126v-256h256v-256h256v-256h256v-386h-256v-256h-256v-256h-256v-256h-126zM-63 -319h256v256h256v256h256v256h256v256h256v126h-256v256h-256v256h-256v386h126v-256h256v-256h256v-256h256v-256 h256v-256h256v-256h256v-386h-256v-256h-256v-256h-126v386h256v256h256v126h-256v256h-256v256h-386v-256h-256v-256h-256v-256h-256v-256h-256v-256h-126v386zM-63 319v386h256v126h-256v386h126v-256h256v-386h-256v-256h-126zM449 -319h256v256h256v256h256v256h126 v-386h-256v-256h-256v-256h-256v-256h-126v386zM961 -319h256v256h256v256h126v-386h-256v-256h-256v-256h-126v386zM961 1343v386h126v-256h256v-256h256v-256h256v-256h256v-386h-126v256h-256v256h-256v256h-256v256h-256zM1473 1343v386h126v-256h256v-256h256v-386 h-126v256h-256v256h-256z" />
<glyph unicode="&#xc3;" horiz-adv-x="512" d="M-63 -193v386h256v256h256v256h126v-386h-256v-256h-256v-126h386v256h126v-386h-256v-256h-256v-256h-126v386h256v126h-256zM-63 319v386h256v256h256v126h-386v-256h-126v386h256v256h256v256h126v-386h-256v-126h256v-386h-256v-256h-256v-256h-126z" />
<glyph unicode="&#xc4;" d="M-63 -319h256v256h256v256h256v256h126v-256h256v-256h256v-386h-256v-256h-126v386h256v126h-256v256h-386v-256h-256v-256h-256v-256h-126v386zM449 -319h256v256h126v-386h-256v-256h-126v386zM961 319v386h256v256h256v256h256v256h256v256h126v-386h-256v-256h-256 v-256h-256v-256h-256v-126h256v-256h386v256h256v256h126v-386h-256v-256h-256v-256h-126v256h-256v256h-256zM1473 319v386h256v256h256v256h126v-386h-256v-256h-256v-256h-126zM1473 -319h256v256h256v256h126v-386h-256v-256h-256v-256h-126v386z" />
<glyph unicode="&#xc5;" horiz-adv-x="512" d="M-63 -193v386h256v256h126v-256h256v-386h-126v256h-386v-256h-126zM-63 319v386h256v256h126v-256h256v-386h-126v256h-386v-256h-126zM-63 -319h256v256h126v-256h256v-386h-126v256h-386v-256h-126v386zM-63 831v386h256v256h126v-256h256v-386h-126v256h-386v-256 h-126z" />
<glyph unicode="&#xc6;" d="M-63 -193v386h256v256h256v256h256v256h126v-256h256v-256h386v256h256v256h256v256h126v-386h-256v-256h-256v-256h-256v-126h256v-256h256v-256h256v-386h-126v256h-256v256h-256v256h-256v256h-256v256h-386v-256h-256v-256h-256v-256h-126zM-63 319v386h256v256h256 v256h256v256h256v256h126v-386h-256v-256h-256v-256h-256v-256h-256v-256h-126zM-63 -319h256v256h256v256h256v256h126v-256h256v-256h256v-256h256v-386h-126v256h-256v256h-256v256h-386v-256h-256v-256h-256v-256h-126v386zM-63 831v386h256v256h256v256h126v-386h-256 v-256h-256v-256h-126zM449 -319h256v256h126v-256h256v-386h-126v256h-386v-256h-126v386zM961 831v386h256v256h256v256h126v-386h-256v-256h-256v-256h-126zM1217 575v386h256v256h256v256h256v256h126v-386h-256v-256h-256v-256h-256v-256h-126zM1729 63v386h256v256h126 v-386h-256v-256h-126z" />
<glyph unicode="&#xc7;" d="M-63 -193v386h126v-256h256v-256h256v-386h-126v256h-256v256h-256zM-63 319v386h256v256h256v256h256v126h-256v386h126v-256h256v-386h-256v-256h-256v-256h-256v-126h256v-256h256v-256h256v-256h386v256h256v256h256v256h256v256h126v-386h-256v-256h-256v-256h-256 v-256h-256v-256h-126v256h-256v256h-256v256h-256v256h-256zM-63 831v386h256v256h126v-386h-256v-256h-126zM449 319v386h256v256h256v256h256v256h256v256h126v-386h-256v-256h-256v-256h-256v-256h-256v-126h256v-256h386v256h256v256h256v126h-386v-256h-256v-256h-126 v386h256v256h256v256h256v256h256v256h126v-386h-256v-256h-256v-126h386v256h126v-386h-256v-256h-256v-256h-256v-256h-256v-256h-126v256h-256v256h-256zM1473 -319h256v256h256v256h126v-386h-256v-256h-256v-256h-126v386z" />
<glyph unicode="&#xc8;" d="M-63 1343v386h126v-256h256v-256h256v-256h256v-256h256v-256h256v-256h256v-256h256v-256h256v-386h-126v256h-256v256h-256v256h-256v256h-256v256h-256v256h-256v256h-256v256h-256zM449 1343v386h126v-256h256v-256h386v256h256v256h126v-386h-256v-256h-256v-256 h-126v256h-256v256h-256zM1217 575v386h256v256h256v256h256v256h126v-386h-256v-256h-256v-256h-256v-126h256v-256h256v-256h256v-386h-126v256h-256v256h-256v256h-256zM1729 575v386h256v256h126v-386h-256v-126h256v-386h-126v256h-256z" />
<glyph unicode="&#xcb;" d="M-63 1343v386h126v-256h256v-256h256v-256h386v256h256v256h256v256h126v-386h-256v-256h-256v-256h-256v-256h-126v256h-256v256h-256v256h-256zM449 1343v386h126v-256h386v256h126v-386h-256v-256h-126v256h-256zM961 319v386h256v256h256v256h256v256h256v256h126 v-386h-256v-256h-256v-256h-256v-256h-256v-256h-126zM1217 63v386h256v256h256v256h256v256h126v-386h-256v-256h-256v-256h-256v-126h256v-256h256v-256h256v-386h-126v256h-256v256h-256v256h-256zM1729 63v386h256v256h126v-386h-256v-126h256v-386h-126v256h-256z" />
<glyph unicode="&#xcd;" horiz-adv-x="1024" d="M-63 -193v386h256v256h256v256h256v126h-256v386h126v-256h256v-386h-256v-126h256v-256h256v-386h-126v256h-256v256h-386v-256h-256v-126h256v-386h-256v-256h-126v386h256v126h-256zM-63 319v386h256v126h-256v386h256v256h256v256h126v-256h256v-256h256v-386h-126 v256h-256v256h-386v-256h-256v-126h256v-386h-256v-256h-126zM449 -193v386h126v-256h256v-386h-256v-256h-126v386h256v126h-256z" />
<glyph unicode="&#xce;" d="M-63 -319h256v256h256v126h-256v256h-256v386h126v-256h256v-256h256v-386h-256v-256h-256v-256h-126v386zM-63 831v386h256v256h256v256h126v-386h-256v-256h-256v-126h386v256h256v256h256v256h126v-386h-256v-256h-256v-256h-256v-256h-126v256h-256zM449 -319h256 v256h256v126h-256v256h-256v386h256v256h256v256h256v256h126v-256h256v-256h256v-256h256v-386h-126v256h-256v256h-256v256h-386v-256h-256v-256h-256v-126h256v-256h256v-256h256v-256h256v-386h-126v256h-256v256h-386v-256h-256v-256h-126v386zM961 319v386h256v256 h126v-256h256v-256h256v-256h256v-386h-126v256h-256v256h-256v256h-386v-126h256v-256h256v-256h256v-256h256v-386h-126v256h-256v256h-256v256h-256v256h-256zM1473 1343v386h126v-256h256v-256h256v-386h-126v256h-256v256h-256z" />
<glyph unicode="&#xcf;" d="M-63 -193v386h126v-256h386v256h126v-386h-256v-126h256v-386h-126v256h-386v-256h-126v386h256v126h-256zM-63 319v386h256v126h-256v386h256v256h126v-386h-256v-126h256v-386h-256v-256h-126zM193 63v386h256v256h256v256h126v-386h-256v-126h386v256h256v126h-256 v256h-386v-256h-126v386h256v126h-256v386h126v-256h386v256h126v-386h-256v-126h256v-256h386v256h126v-386h-256v-126h256v-256h386v256h126v-386h-256v-256h-256v-256h-126v386h256v126h-256v256h-386v-256h-256v-126h386v256h126v-386h-256v-126h256v-386h-126v256h-386 v-256h-126v386h256v126h-256v256h-386v-256h-126zM1217 1087v386h256v256h126v-256h256v-256h256v-386h-256v-256h-126v386h256v126h-256v256h-386v-256h-126zM1473 -319h256v256h256v256h126v-386h-256v-256h-256v-256h-126v386z" />
<glyph unicode="&#xd1;" d="M-63 -193v386h126v-256h386v126h-256v256h-256v386h126v-256h256v-256h256v-386h-256v-256h-126v256h-256zM-63 831v386h126v-256h256v-256h386v126h-256v386h256v256h256v256h126v-256h256v-256h386v126h-256v386h126v-256h256v-386h-256v-256h-126v256h-256v256h-386 v-256h-256v-126h256v-386h-256v-256h-126v256h-256v256h-256zM-63 1343v386h126v-256h386v256h126v-386h-256v-256h-126v256h-256zM449 -319h256v256h256v256h126v-386h-256v-256h-256v-256h-126v386zM705 63v386h256v256h126v-256h256v-256h256v-256h256v-256h256v-386 h-126v256h-256v256h-256v256h-256v256h-386v-256h-126zM961 831v386h126v-256h256v-256h256v-256h256v-256h256v-386h-126v256h-256v256h-256v256h-256v256h-256zM1217 -63h126v-256h256v-386h-126v256h-256v386zM1729 575v386h256v256h126v-386h-256v-126h256v-386h-126 v256h-256z" />
<glyph unicode="&#xd2;" horiz-adv-x="1024" d="M-63 -193v386h256v126h-256v386h126v-256h256v-386h-256v-256h-126zM-63 831v386h126v-256h386v256h256v126h-256v386h126v-256h256v-386h-256v-256h-256v-126h256v-256h256v-256h256v-386h-126v256h-386v-256h-256v-126h256v-386h-126v256h-256v386h256v256h256v126 h-256v256h-256v256h-256zM-63 1343v386h126v-256h256v-386h-126v256h-256zM705 -63h126v-256h256v-386h-126v256h-256v386zM705 575v386h256v256h126v-386h-256v-126h256v-386h-126v256h-256z" />
<glyph unicode="&#xd3;" horiz-adv-x="1024" d="M-63 -193v386h256v256h256v256h126v-256h386v256h126v-386h-256v-256h-126v256h-386v-256h-256v-126h256v-256h256v-386h-126v256h-256v256h-256zM-63 319v386h256v256h256v256h256v256h256v256h126v-386h-256v-256h-256v-256h-256v-256h-256v-256h-126zM-63 831v386h256 v256h256v256h126v-386h-256v-256h-256v-256h-126zM449 -193v386h126v-256h256v-256h256v-386h-126v256h-256v256h-256zM705 575v386h256v256h126v-386h-256v-256h-126z" />
<glyph unicode="&#xd4;" d="M-63 -193v386h256v256h256v256h126v-256h256v-256h256v-386h-256v-256h-256v-256h-126v386h256v256h256v126h-256v256h-386v-256h-256v-256h-126zM-63 319v386h256v256h126v-386h-256v-256h-126zM-63 -319h256v256h256v256h126v-386h-256v-256h-256v-256h-126v386z M-63 831v386h256v256h256v256h126v-386h-256v-126h256v-256h256v-256h256v-256h256v-256h256v-256h256v-256h256v-386h-126v256h-256v256h-256v256h-256v256h-256v256h-256v256h-256v256h-386v-256h-126zM705 1087v386h256v256h126v-386h-256v-256h-126zM961 -319h256v256 h126v-256h256v-386h-126v256h-386v-256h-126v386zM961 831v386h256v256h256v256h126v-386h-256v-256h-256v-126h256v-256h386v256h256v256h126v-386h-256v-256h-256v-256h-126v256h-256v256h-256zM1473 831v386h256v256h256v256h126v-386h-256v-256h-256v-256h-126zM1729 63 v386h256v256h126v-386h-256v-126h256v-386h-126v256h-256z" />
<glyph unicode="&#xd5;" horiz-adv-x="512" d="M-63 -193v386h256v126h-256v386h126v-256h256v-256h256v-386h-126v256h-386v-256h-126zM-63 831v386h256v126h-256v386h126v-256h256v-256h256v-386h-126v256h-386v-256h-126zM193 -63h126v-256h256v-386h-126v256h-256v386zM193 575v386h126v-256h256v-386h-126v256 h-256z" />
<glyph unicode="&#xd7;" horiz-adv-x="512" d="M-63 -193v386h126v-256h256v-386h-256v-256h-126v386h256v126h-256zM-63 319v386h256v126h-256v386h126v-256h256v-386h-256v-256h-126zM193 63v386h256v256h126v-386h-256v-126h256v-386h-126v256h-256zM193 1087v386h256v256h126v-386h-256v-126h256v-386h-126v256 h-256z" />
<glyph unicode="&#xd8;" horiz-adv-x="512" d="M-63 -193v386h256v256h126v-256h256v-386h-126v256h-386v-126h256v-256h256v-386h-126v256h-256v256h-256zM-63 831v386h256v256h256v256h126v-386h-256v-256h-256v-126h256v-256h256v-386h-126v256h-256v256h-256z" />
<glyph unicode="&#xda;" horiz-adv-x="512" d="M-63 -193v386h256v256h256v126h-256v256h-256v386h126v-256h256v-256h256v-386h-256v-256h-256v-126h256v-256h256v-386h-126v256h-256v256h-256zM-63 1343v386h126v-256h256v-256h256v-386h-126v256h-256v256h-256z" />
<glyph unicode="&#xdf;" horiz-adv-x="1024" d="M-63 -193v386h256v126h-256v386h126v-256h256v-386h-256v-126h256v-256h386v256h256v256h126v-386h-256v-256h-256v-256h-126v256h-256v256h-256zM-63 831v386h256v126h-256v386h126v-256h256v-386h-256v-126h256v-256h386v256h256v256h126v-386h-256v-256h-256v-126h256 v-386h-256v-256h-126v386h256v126h-256v256h-256v256h-256zM449 831v386h256v126h-256v386h126v-256h256v-386h-256v-256h-126z" />
<glyph unicode="&#xe0;" d="M-63 -193v386h256v256h256v256h256v256h256v126h-256v256h-256v386h126v-256h256v-256h256v-386h-256v-256h-256v-256h-256v-256h-256v-256h-126zM-63 -319h256v256h256v256h256v256h256v256h256v256h256v256h256v256h256v256h126v-386h-256v-256h-256v-256h-256v-256 h-256v-256h-256v-256h-256v-256h-256v-256h-256v-256h-126v386zM-63 319v386h256v126h-256v386h126v-256h256v-386h-256v-256h-126zM-63 1343v386h126v-256h256v-256h256v-386h-126v256h-256v256h-256zM961 1343v386h126v-256h386v256h126v-386h-256v-256h-126v256h-256z " />
<glyph unicode="&#xe3;" horiz-adv-x="512" d="M-63 -193v386h126v-256h386v126h-256v256h-256v386h126v-256h256v-256h256v-386h-256v-126h256v-386h-126v256h-256v256h-256zM-63 831v386h256v126h-256v386h126v-256h256v-256h256v-386h-126v256h-386v-126h256v-256h256v-386h-126v256h-256v256h-256z" />
<glyph unicode="&#xe4;" d="M-63 -193v386h256v256h256v256h126v-386h-256v-256h-256v-256h-126zM-63 -319h256v256h256v256h256v256h256v126h-256v256h-386v-256h-256v-256h-126v386h256v256h256v256h126v-256h256v-256h256v-386h-256v-256h-256v-256h-256v-256h-256v-256h-126v386zM-63 831v386 h256v256h256v256h126v-386h-256v-256h-256v-256h-126zM705 1087v386h256v256h126v-386h-256v-126h256v-256h386v256h256v256h256v256h126v-386h-256v-256h-256v-256h-256v-256h-126v256h-256v256h-256zM1217 1087v386h256v256h126v-386h-256v-256h-126z" />
<glyph unicode="&#xe5;" horiz-adv-x="512" d="M-63 -193v386h126v-256h386v256h126v-386h-256v-256h-126v256h-256zM-63 319v386h126v-256h386v256h126v-386h-256v-256h-126v256h-256zM-63 831v386h126v-256h386v256h126v-386h-256v-256h-126v256h-256zM-63 1343v386h126v-256h386v256h126v-386h-256v-256h-126v256 h-256z" />
<glyph unicode="&#xe6;" d="M-63 -193v386h126v-256h256v-256h256v-386h-126v256h-256v256h-256zM-63 319v386h126v-256h256v-256h256v-256h256v-256h256v-386h-126v256h-256v256h-256v256h-256v256h-256zM-63 831v386h126v-256h256v-256h256v-386h-126v256h-256v256h-256zM-63 1343v386h126v-256 h256v-256h256v-256h256v-386h-126v256h-256v256h-256v256h-256zM449 1343v386h126v-256h256v-256h256v-256h386v256h256v256h256v256h126v-386h-256v-256h-256v-256h-256v-256h-256v-256h-256v-126h256v-256h256v-256h256v-386h-126v256h-256v256h-256v256h-256v386h256v256 h256v126h-256v256h-256v256h-256zM961 1343v386h126v-256h256v-386h-126v256h-256zM1217 63v386h256v256h256v256h256v256h126v-386h-256v-256h-256v-256h-256v-126h256v-256h256v-256h256v-386h-126v256h-256v256h-256v256h-256zM1729 63v386h256v256h126v-386h-256v-126 h256v-386h-126v256h-256z" />
<glyph unicode="&#xe7;" d="M-63 -193v386h126v-256h256v-386h-126v256h-256zM-63 319v386h256v256h256v256h256v256h256v256h126v-256h256v-256h256v-256h256v-256h256v-386h-126v256h-256v256h-256v256h-256v256h-386v-256h-256v-256h-256v-256h-256v-126h256v-256h256v-256h256v-386h-256v-256 h-126v386h256v126h-256v256h-256v256h-256zM-63 831v386h256v256h256v256h126v-386h-256v-256h-256v-256h-126zM449 319v386h256v256h256v256h126v-256h256v-256h256v-256h256v-256h256v-386h-126v256h-386v-126h256v-256h256v-386h-126v256h-256v256h-256v256h-256v256 h-256v386h126v-256h256v-256h386v126h-256v256h-256v256h-386v-256h-256v-126h256v-256h256v-256h256v-256h256v-386h-126v256h-256v256h-256v256h-256v256h-256zM1473 1343v386h126v-256h256v-256h256v-386h-126v256h-256v256h-256z" />
<glyph unicode="&#xe8;" d="M-63 -193v386h256v126h-256v386h126v-256h256v-386h-256v-256h-126zM-63 -319h256v256h256v256h256v126h-256v256h-256v256h-256v386h126v-256h256v-256h256v-256h256v-386h-256v-256h-256v-256h-256v-256h-126v386zM-63 1343v386h126v-256h256v-256h256v-256h256v-256 h256v-256h256v-256h256v-256h256v-256h256v-386h-126v256h-256v256h-256v256h-256v256h-256v256h-256v256h-256v256h-256v256h-256zM449 -319h256v256h256v256h126v-256h256v-256h256v-386h-126v256h-256v256h-386v-256h-256v-256h-126v386z" />
<glyph unicode="&#xe9;" horiz-adv-x="512" d="M-63 -193v386h126v-256h256v-256h256v-386h-126v256h-256v256h-256zM-63 319v386h126v-256h256v-256h256v-386h-126v256h-256v256h-256zM-63 831v386h126v-256h386v256h126v-386h-256v-256h-126v256h-256zM-63 1343v386h126v-256h386v256h126v-386h-256v-256h-126v256 h-256z" />
<glyph unicode="&#xeb;" d="M-63 -193v386h256v256h256v256h256v126h-256v256h-256v256h-256v386h126v-256h256v-256h256v-256h256v-386h-256v-256h-256v-256h-256v-256h-126zM-63 319v386h256v126h-256v386h126v-256h256v-386h-256v-256h-126zM-63 -319h256v256h256v256h256v256h256v256h126v-386 h-256v-256h-256v-256h-256v-256h-256v-256h-126v386zM449 -319h256v256h256v256h256v256h126v-256h256v-256h256v-256h256v-386h-126v256h-256v256h-256v256h-386v-256h-256v-256h-256v-256h-126v386zM961 -319h256v256h126v-256h256v-386h-126v256h-386v-256h-126v386z" />
<glyph unicode="&#xee;" horiz-adv-x="512" d="M-63 -319h256v256h256v126h-256v256h-256v386h126v-256h256v-256h256v-386h-256v-256h-256v-256h-126v386zM-63 831v386h256v256h256v256h126v-386h-256v-256h-256v-256h-126zM193 575v386h256v256h126v-386h-256v-126h256v-386h-126v256h-256z" />
<glyph unicode="&#xf1;" d="M-63 -193v386h126v-256h386v126h-256v256h-256v386h126v-256h256v-256h256v-386h-256v-256h-126v256h-256zM-63 831v386h126v-256h256v-256h386v126h-256v386h256v256h256v256h126v-256h256v-256h386v126h-256v386h126v-256h256v-386h-256v-256h-126v256h-256v256h-386 v-256h-256v-126h256v-386h-256v-256h-126v256h-256v256h-256zM-63 1343v386h126v-256h386v256h126v-386h-256v-256h-126v256h-256zM449 -319h256v256h256v256h126v-386h-256v-256h-256v-256h-126v386zM705 63v386h256v256h126v-256h256v-256h256v-256h256v-256h256v-386 h-126v256h-256v256h-256v256h-256v256h-386v-256h-126zM961 831v386h126v-256h256v-256h256v-256h256v-256h256v-386h-126v256h-256v256h-256v256h-256v256h-256zM1217 -63h126v-256h256v-386h-126v256h-256v386zM1729 575v386h256v256h126v-386h-256v-126h256v-386h-126 v256h-256z" />
<glyph unicode="&#xf5;" horiz-adv-x="512" d="M-63 -193v386h256v256h256v256h126v-386h-256v-126h256v-386h-126v256h-386v-256h-126zM-63 319v386h256v256h126v-386h-256v-256h-126zM-63 -319h256v256h126v-386h-256v-256h-126v386zM-63 831v386h256v256h256v256h126v-386h-256v-126h256v-386h-126v256h-386v-256 h-126z" />
<glyph unicode="&#xf7;" horiz-adv-x="512" d="M-63 -193v386h126v-256h256v-386h-256v-256h-126v386h256v126h-256zM-63 319v386h126v-256h256v-256h256v-386h-126v256h-256v256h-256zM-63 831v386h126v-256h256v-256h256v-386h-126v256h-256v256h-256zM193 1087v386h256v256h126v-386h-256v-126h256v-386h-126v256 h-256z" />
<glyph unicode="&#xf8;" horiz-adv-x="512" d="M-63 -319h256v256h256v126h-256v256h-256v386h126v-256h256v-256h256v-386h-256v-256h-256v-256h-126v386zM-63 831v386h126v-256h386v126h-256v256h-256v386h126v-256h256v-256h256v-386h-256v-256h-126v256h-256z" />
<glyph unicode="&#xfc;" horiz-adv-x="512" d="M-63 -319h256v256h256v126h-256v256h-256v386h256v256h256v256h126v-386h-256v-256h-256v-126h256v-256h256v-386h-256v-256h-256v-256h-126v386zM-63 831v386h256v256h256v256h126v-386h-256v-256h-256v-256h-126z" />
<glyph unicode="&#x131;" d="M-63 319v386h126v-256h256v-256h386v256h256v256h256v256h256v256h256v256h256v256h126v-386h-256v-256h-256v-256h-256v-256h-256v-256h-256v-256h-256v-256h-126v256h-256v256h-256zM-63 -319h256v256h126v-386h-256v-256h-126v386zM-63 831v386h256v256h256v256h126 v-386h-256v-256h-256v-256h-126zM193 575v386h256v256h256v256h256v256h126v-386h-256v-256h-256v-256h-256v-126h386v256h256v256h256v256h256v256h126v-386h-256v-256h-256v-256h-256v-256h-256v-256h-126v256h-256zM449 -319h256v256h256v256h256v256h256v256h256v256 h126v-256h256v-386h-126v256h-386v-256h-256v-256h-256v-256h-256v-256h-256v-256h-126v386zM961 -319h256v256h256v256h256v256h126v-256h256v-386h-256v-256h-256v-256h-126v386h256v256h256v126h-386v-256h-256v-256h-256v-256h-126v386z" />
<glyph unicode="&#x152;" d="M-63 -193v386h256v256h256v256h256v126h-256v256h-386v-256h-126v386h256v256h256v256h126v-386h-256v-126h256v-256h256v-386h-256v-256h-256v-256h-256v-256h-126zM-63 -319h256v256h256v256h256v256h256v256h126v-256h256v-256h256v-256h386v256h126v-386h-256v-256 h-256v-256h-126v386h256v126h-256v256h-256v256h-386v-256h-256v-256h-256v-256h-256v-256h-126v386zM-63 319v386h256v256h126v-386h-256v-256h-126zM449 -319h256v256h256v256h126v-386h-256v-256h-256v-256h-126v386zM705 1087v386h256v256h126v-386h-256v-126h256v-256 h386v256h256v256h256v256h126v-386h-256v-256h-256v-256h-256v-126h256v-256h386v256h126v-386h-256v-256h-126v256h-256v256h-256v256h-256v256h-256zM961 -319h256v256h126v-386h-256v-256h-126v386zM1217 1087v386h256v256h126v-386h-256v-256h-126zM1729 575v386h256 v256h126v-386h-256v-256h-126z" />
<glyph unicode="&#x153;" d="M-63 -193v386h126v-256h386v256h256v126h-256v256h-256v256h-256v386h126v-256h256v-256h256v-256h256v-386h-256v-256h-256v-126h256v-386h-126v256h-256v256h-256zM-63 319v386h126v-256h256v-386h-126v256h-256zM-63 1343v386h126v-256h256v-256h256v-256h256v-256 h386v256h256v256h256v126h-256v386h126v-256h256v-256h256v-386h-126v256h-386v-256h-256v-256h-256v-256h-126v256h-256v256h-256v256h-256v256h-256zM449 1343v386h126v-256h256v-256h256v-386h-126v256h-256v256h-256zM705 -63h256v256h256v256h256v256h256v256h126v-256 h256v-386h-126v256h-386v-256h-256v-126h256v-256h256v-256h256v-386h-126v256h-256v256h-256v256h-386v-256h-256v-126h256v-386h-126v256h-256v386zM961 1343v386h126v-256h256v-386h-126v256h-256zM1217 -63h126v-256h256v-386h-126v256h-256v386zM1729 63v386h126v-256 h256v-386h-126v256h-256z" />
<glyph unicode="&#x192;" d="M-63 -193v386h256v126h-256v386h126v-256h256v-386h-256v-126h256v-386h-126v256h-256zM-63 831v386h256v126h-256v386h126v-256h386v256h126v-386h-256v-126h256v-386h-126v256h-386v-256h-126zM193 575v386h126v-256h386v256h256v126h-256v386h126v-256h386v256h126 v-386h-256v-126h256v-386h-126v256h-386v-126h256v-256h386v256h256v126h-256v386h126v-256h256v-256h256v-386h-126v256h-386v-256h-256v-126h256v-386h-126v256h-386v-256h-256v-126h256v-386h-126v256h-386v-256h-126v386h256v126h-256v386h126v-256h386v256h256v126 h-256v256h-386v-126h256v-386h-126v256h-256v256h-256zM1217 -63h126v-256h386v256h256v126h-256v386h126v-256h256v-386h-256v-256h-256v-256h-126v256h-256v386zM1473 1343v386h126v-256h256v-256h256v-386h-126v256h-256v256h-256z" />
<glyph unicode="&#x2c6;" horiz-adv-x="512" d="M-63 -193v386h256v126h-256v386h126v-256h256v-386h-256v-256h-126zM-63 -319h256v256h256v256h126v-386h-256v-256h-256v-256h-126v386zM-63 831v386h256v256h256v256h126v-386h-256v-256h-256v-126h256v-256h256v-386h-126v256h-256v256h-256z" />
<glyph unicode="&#x2c7;" horiz-adv-x="1024" d="M-63 -193v386h126v-256h256v-256h256v-386h-126v256h-256v256h-256zM-63 319v386h126v-256h256v-256h256v-256h256v-256h256v-386h-126v256h-256v256h-256v256h-256v256h-256zM-63 831v386h256v256h256v256h126v-386h-256v-256h-256v-256h-126zM193 575v386h256v256h256 v256h256v256h126v-386h-256v-256h-256v-256h-256v-256h-126zM449 319v386h126v-256h256v-256h256v-386h-126v256h-256v256h-256zM705 575v386h256v256h126v-386h-256v-126h256v-386h-126v256h-256z" />
<glyph unicode="&#x2d8;" horiz-adv-x="512" d="M-63 -193v386h256v256h256v126h-256v256h-256v386h256v256h256v256h126v-386h-256v-256h-256v-126h256v-256h256v-386h-256v-256h-256v-256h-126zM-63 -319h256v256h256v256h126v-386h-256v-256h-256v-256h-126v386z" />
<glyph unicode="&#x2d9;" horiz-adv-x="1024" d="M-63 -193v386h126v-256h256v-256h256v-386h-126v256h-256v256h-256zM-63 319v386h126v-256h256v-256h256v-256h256v-256h256v-386h-126v256h-256v256h-256v256h-256v256h-256zM-63 831v386h256v256h256v256h126v-386h-256v-256h-256v-126h256v-256h386v256h126v-256h256 v-386h-126v256h-386v-256h-126v256h-256v256h-256zM449 831v386h256v256h256v256h126v-386h-256v-256h-256v-256h-126zM705 63v386h126v-256h256v-386h-126v256h-256z" />
<glyph unicode="&#x2da;" d="M-63 -193v386h256v256h256v256h256v256h256v256h256v256h256v256h126v-386h-256v-126h256v-256h256v-256h256v-386h-126v256h-256v256h-256v256h-386v-256h-256v-256h-256v-256h-256v-256h-256v-256h-126zM-63 319v386h256v256h256v256h126v-386h-256v-256h-256v-256 h-126zM-63 -319h256v256h256v256h126v-386h-256v-256h-256v-256h-126v386zM-63 831v386h256v256h256v256h126v-386h-256v-256h-256v-256h-126zM449 -319h256v256h256v256h256v256h256v126h-386v-256h-256v-256h-126v386h256v256h256v256h126v-256h256v-256h256v-256h256 v-386h-126v256h-256v256h-386v-256h-256v-256h-256v-256h-256v-256h-126v386zM705 1087v386h256v256h126v-386h-256v-256h-126zM961 -319h256v256h256v256h126v-256h256v-256h256v-386h-126v256h-256v256h-386v-256h-256v-256h-126v386zM1729 1087v386h256v256h126v-386 h-256v-126h256v-386h-126v256h-256z" />
<glyph unicode="&#x2db;" d="M-63 -193v386h256v256h256v256h256v126h-386v-256h-256v-256h-126v386h256v256h256v256h126v-256h386v126h-256v386h256v256h126v-386h-256v-126h386v256h256v256h126v-386h-256v-256h-256v-256h-256v-256h-256v-256h-256v-256h-256v-256h-126zM-63 831v386h256v126h-256 v386h126v-256h256v-386h-256v-256h-126zM193 -63h256v256h256v256h256v256h256v256h256v256h256v256h256v256h126v-386h-256v-256h-256v-256h-256v-126h386v256h256v256h126v-386h-256v-256h-256v-256h-126v256h-386v-126h256v-386h-256v-256h-256v-256h-256v-256h-126v256 h-256v386zM319 -193v-126h386v256h256v256h256v126h-386v-256h-256v-256h-256zM961 -319h256v256h256v256h126v-256h256v-256h256v-386h-126v256h-386v-256h-126v386h256v126h-386v-256h-256v-256h-126v386zM1729 63v386h256v256h126v-386h-256v-126h256v-386h-126v256h-256 z" />
<glyph unicode="&#x2dc;" d="M-63 -193v386h256v126h-256v386h126v-256h256v-386h-256v-256h-126zM-63 831v386h126v-256h256v-256h256v-256h256v-256h256v-386h-126v256h-256v256h-256v256h-256v256h-256zM-63 1343v386h126v-256h256v-256h256v-256h256v-256h386v256h126v-386h-256v-256h-126v256 h-256v256h-256v256h-256v256h-256zM193 -63h256v256h126v-256h256v-256h386v256h256v126h-256v386h256v256h126v-256h256v-256h256v-386h-126v256h-256v256h-386v-126h256v-386h-256v-256h-256v-256h-126v256h-256v256h-386v-126h256v-386h-126v256h-256v386zM449 1343v386 h126v-256h256v-386h-126v256h-256zM961 831v386h256v256h256v256h126v-386h-256v-256h-256v-256h-126zM1473 -319h256v256h126v-256h256v-386h-126v256h-386v-256h-126v386zM1473 831v386h256v256h126v-256h256v-386h-126v256h-386v-126h256v-256h256v-386h-126v256h-256 v256h-256z" />
<glyph unicode="&#x2dd;" d="M-63 -193v386h256v256h256v256h256v126h-256v386h256v256h256v256h126v-386h-256v-256h-256v-126h256v-386h-256v-256h-256v-256h-256v-256h-126zM-63 -319h256v256h256v256h256v256h256v256h256v126h-256v386h256v256h256v256h126v-386h-256v-256h-256v-126h256v-256 h386v256h256v256h126v-386h-256v-256h-256v-256h-126v256h-386v-256h-256v-256h-256v-256h-256v-256h-256v-256h-126v386zM-63 319v386h256v256h126v-386h-256v-256h-126zM-63 831v386h256v256h256v256h126v-386h-256v-256h-256v-256h-126zM449 -319h256v256h256v256h256 v256h126v-256h386v256h256v256h126v-386h-256v-256h-256v-256h-126v256h-386v-256h-256v-256h-256v-256h-126v386zM961 -319h256v256h126v-386h-256v-256h-126v386zM1473 -319h256v256h256v256h126v-386h-256v-256h-256v-256h-126v386zM1473 831v386h256v256h256v256h126 v-386h-256v-256h-256v-256h-126z" />
<glyph unicode="&#x3a9;" d="M-63 -193v386h256v256h126v-386h-256v-256h-126zM-63 -319h256v256h256v256h256v126h-256v256h-386v-256h-126v386h256v126h-256v386h256v256h256v256h126v-386h-256v-256h-256v-126h386v256h256v256h126v-386h-256v-256h-256v-126h386v256h126v-386h-256v-126h256v-256 h386v256h126v-386h-256v-126h386v256h256v256h126v-386h-256v-256h-256v-126h386v256h256v256h126v-386h-256v-256h-256v-256h-126v256h-386v-256h-126v386h256v126h-256v256h-386v-256h-256v-256h-256v-256h-126v386zM449 -319h256v256h126v-386h-256v-256h-126v386z M961 319v386h256v256h256v256h256v126h-386v-256h-256v-256h-126v386h256v256h256v256h126v-256h256v-256h256v-386h-256v-256h-256v-256h-126v386h256v256h256v126h-386v-256h-256v-256h-256v-256h-126z" />
<glyph unicode="&#x3c0;" d="M-63 -193v386h256v256h256v126h-256v256h-256v386h126v-256h256v-256h256v-386h-256v-256h-256v-256h-126zM-63 -319h256v256h256v256h256v256h126v-256h256v-256h256v-256h256v-386h-126v256h-256v256h-256v256h-386v-256h-256v-256h-256v-256h-126v386zM-63 1343v386 h126v-256h256v-256h256v-386h-126v256h-256v256h-256zM449 -319h256v256h126v-256h256v-386h-126v256h-386v-256h-126v386zM449 1343v386h126v-256h256v-256h256v-256h386v256h256v256h256v256h126v-386h-256v-256h-256v-256h-256v-126h256v-256h256v-256h256v-386h-126v256 h-256v256h-256v256h-256v256h-256v256h-256v256h-256zM705 575v386h126v-256h256v-256h256v-256h256v-256h256v-256h256v-386h-126v256h-256v256h-256v256h-256v256h-256v256h-256zM961 1343v386h126v-256h386v256h126v-386h-256v-256h-126v256h-256zM1729 575v386h256v256 h126v-386h-256v-126h256v-386h-126v256h-256z" />
<glyph unicode="&#x2000;" horiz-adv-x="1024" />
<glyph unicode="&#x2001;" />
<glyph unicode="&#x2002;" horiz-adv-x="1024" />
<glyph unicode="&#x2003;" />
<glyph unicode="&#x2013;" horiz-adv-x="512" d="M-63 319v386h256v126h-256v386h256v256h256v256h126v-386h-256v-256h-256v-126h256v-386h-256v-256h-126zM-63 -319h256v256h256v126h-256v386h256v256h126v-386h-256v-126h256v-386h-256v-256h-256v-256h-126v386z" />
<glyph unicode="&#x2014;" horiz-adv-x="512" d="M-63 -193v386h256v126h-256v386h126v-256h256v-386h-256v-126h256v-256h256v-386h-126v256h-256v256h-256zM-63 1343v386h126v-256h256v-256h256v-386h-256v-126h256v-386h-126v256h-256v386h256v126h-256v256h-256z" />
<glyph unicode="&#x2018;" d="M-63 -319h256v256h256v126h-256v256h-256v386h126v-256h256v-256h386v256h256v256h126v-256h256v-256h256v-256h256v-256h256v-386h-126v256h-256v256h-256v256h-256v256h-386v-256h-256v-126h256v-256h256v-386h-126v256h-256v256h-386v-256h-256v-256h-126v386z M-63 831v386h126v-256h256v-256h256v-386h-126v256h-256v256h-256zM-63 1343v386h126v-256h256v-256h256v-256h256v-386h-126v256h-256v256h-256v256h-256zM449 1343v386h126v-256h256v-256h256v-256h386v256h256v126h-256v386h126v-256h386v256h126v-386h-256v-126h256 v-386h-126v256h-386v-256h-256v-126h256v-256h256v-256h256v-386h-126v256h-256v256h-256v256h-256v256h-256v256h-256v256h-256zM961 -193v386h126v-256h256v-256h256v-386h-126v256h-256v256h-256zM961 1343v386h126v-256h256v-386h-126v256h-256zM1729 575v386h126v-256 h256v-386h-126v256h-256z" />
<glyph unicode="&#x2019;" d="M-63 -193v386h256v256h256v256h256v126h-256v256h-256v256h-256v386h126v-256h256v-256h256v-256h386v256h256v256h256v256h126v-386h-256v-256h-256v-256h-256v-256h-256v-256h-256v-256h-256v-256h-126zM-63 -319h256v256h256v256h256v256h256v256h126v-256h256v-256 h256v-256h256v-256h256v-386h-126v256h-256v256h-256v256h-256v256h-386v-256h-256v-256h-256v-256h-256v-256h-126v386zM-63 319v386h256v126h-256v386h126v-256h256v-386h-256v-256h-126zM449 -319h256v256h256v256h126v-256h256v-256h256v-386h-126v256h-256v256h-386 v-256h-256v-256h-126v386zM449 1343v386h126v-256h386v256h126v-386h-256v-256h-126v256h-256zM1217 575v386h256v256h256v256h256v256h126v-386h-256v-256h-256v-256h-256v-256h-126zM1473 319v386h256v256h256v256h126v-386h-256v-256h-256v-126h256v-256h256v-386h-126 v256h-256v256h-256z" />
<glyph unicode="&#x201a;" horiz-adv-x="1024" d="M-63 -193v386h256v126h-256v386h126v-256h256v-386h-256v-256h-126zM-63 -319h256v256h256v256h126v-256h256v-386h-256v-256h-126v386h256v126h-386v-256h-256v-256h-126v386zM-63 831v386h126v-256h256v-256h256v-256h256v-256h256v-386h-126v256h-256v256h-256v256 h-256v256h-256zM193 1087v386h256v256h126v-386h-256v-126h386v256h256v256h126v-386h-256v-256h-256v-256h-126v256h-256zM705 575v386h256v256h126v-386h-256v-126h256v-386h-126v256h-256z" />
<glyph unicode="&#x201c;" d="M-63 -193v386h256v256h256v256h126v-386h-256v-126h386v256h256v126h-256v256h-256v256h-256v386h126v-256h256v-256h256v-256h256v-256h256v-256h256v-256h256v-256h256v-386h-126v256h-256v256h-256v256h-256v256h-386v-256h-256v-126h386v256h126v-386h-256v-256h-256 v-256h-126v386h256v126h-386v-256h-256v-256h-126v386h256v256h256v126h-386v-256h-126zM-63 831v386h126v-256h256v-386h-126v256h-256zM449 1343v386h126v-256h256v-386h-126v256h-256zM961 831v386h256v256h256v256h126v-386h-256v-126h386v256h256v256h126v-386h-256 v-256h-256v-126h386v256h126v-386h-256v-256h-256v-256h-126v386h256v126h-386v-256h-126v386h256v126h-386v-256h-126zM1217 -63h126v-256h256v-386h-126v256h-256v386zM1729 63v386h126v-256h256v-386h-126v256h-256z" />
<glyph unicode="&#x201d;" d="M-63 -193v386h256v256h256v126h-386v-256h-126v386h256v256h256v256h126v-256h386v256h126v-386h-256v-256h-126v256h-386v-126h256v-386h-256v-256h-256v-256h-126zM-63 831v386h256v256h256v256h126v-256h256v-386h-126v256h-386v-256h-256v-256h-126zM193 -63h256v256 h126v-256h386v256h126v-256h256v-386h-256v-256h-126v386h256v126h-386v-256h-126v256h-386v-126h256v-386h-126v256h-256v386zM705 63v386h256v256h126v-256h256v-256h386v256h126v-256h256v-386h-126v256h-386v-126h256v-256h256v-386h-126v256h-256v256h-256v256h-256 v256h-386v-256h-126zM961 1343v386h126v-256h386v256h126v-256h386v256h126v-386h-256v-256h-126v256h-386v-126h256v-386h-256v-126h386v256h126v-256h256v-386h-126v256h-386v-256h-126v256h-256v386h256v126h-256v256h-256z" />
<glyph unicode="&#x201e;" d="M-63 -193v386h126v-256h256v-256h386v256h126v-256h256v-386h-126v256h-386v-256h-126v256h-256v256h-256zM-63 319v386h126v-256h256v-256h386v126h-256v256h-256v256h-256v386h126v-256h256v-256h256v-256h256v-256h256v-256h386v256h126v-386h-256v-256h-126v256h-256 v256h-386v-256h-126v256h-256v256h-256zM-63 1343v386h126v-256h256v-256h386v256h126v-256h256v-256h386v256h126v-386h-256v-256h-126v256h-256v256h-386v-256h-126v256h-256v256h-256zM705 575v386h126v-256h256v-256h386v256h126v-256h386v256h126v-386h-256v-256h-126 v256h-386v-256h-126v256h-256v256h-256zM961 1343v386h126v-256h386v256h126v-256h386v256h126v-386h-256v-256h-126v256h-386v-256h-126v256h-256zM1729 -63h256v256h126v-386h-256v-256h-126v386zM1729 575v386h256v256h126v-386h-256v-256h-126z" />
<glyph unicode="&#x2020;" horiz-adv-x="1024" d="M-63 -193v386h256v256h256v256h256v256h126v-386h-256v-256h-256v-256h-256v-126h256v-256h256v-386h-126v256h-256v256h-256zM-63 319v386h256v126h-256v386h126v-256h256v-386h-256v-256h-126zM-63 1343v386h126v-256h256v-256h256v-386h-126v256h-256v256h-256z M449 -193v386h256v256h256v256h126v-386h-256v-256h-256v-126h256v-256h256v-386h-126v256h-256v256h-256zM449 1343v386h126v-256h256v-256h256v-386h-126v256h-256v256h-256z" />
<glyph unicode="&#x2021;" d="M-63 -193v386h256v256h126v-386h-256v-256h-126zM-63 319v386h256v126h-256v386h126v-256h256v-256h256v-256h386v256h126v-386h-256v-126h386v256h256v256h256v256h126v-386h-256v-256h-256v-256h-256v-126h256v-386h-126v256h-386v-256h-126v386h256v126h-386v-256 h-126v386h256v126h-256v256h-386v-256h-126zM193 -63h126v-256h256v-386h-126v256h-256v386zM193 1087v386h126v-256h386v126h-256v386h126v-256h386v256h126v-386h-256v-126h386v256h256v256h126v-256h256v-256h256v-386h-126v256h-256v256h-386v-126h256v-386h-126v256 h-386v-126h256v-386h-126v256h-256v256h-386v-126h256v-386h-126v256h-256v256h-256zM1473 -193v386h126v-256h386v256h126v-386h-256v-126h256v-386h-126v256h-386v-256h-126v386h256v126h-256zM1729 63v386h256v256h126v-386h-256v-256h-126z" />
<glyph unicode="&#x2022;" horiz-adv-x="1024" d="M-63 -193v386h256v256h126v-256h386v256h256v256h126v-386h-256v-256h-256v-256h-126v256h-386v-256h-126zM-63 319v386h256v256h256v256h126v-256h386v256h126v-386h-256v-256h-126v256h-386v-256h-256v-256h-126zM-63 -319h256v256h126v-386h-256v-256h-126v386z M-63 831v386h256v256h256v256h126v-386h-256v-256h-256v-256h-126zM449 -319h256v256h256v256h126v-386h-256v-256h-256v-256h-126v386zM705 1087v386h256v256h126v-386h-256v-256h-126z" />
<glyph unicode="&#x2026;" horiz-adv-x="1024" d="M-63 -193v386h256v256h256v256h256v256h256v126h-256v256h-386v-256h-256v-256h-126v386h256v256h256v256h126v-256h256v-256h256v-386h-256v-256h-256v-256h-256v-256h-256v-256h-126zM-63 319v386h256v256h256v256h126v-386h-256v-256h-256v-256h-126zM-63 -319h256 v256h256v256h256v256h256v256h126v-386h-256v-256h-256v-126h256v-256h256v-386h-126v256h-256v256h-386v-256h-256v-256h-126v386z" />
<glyph unicode="&#x2030;" horiz-adv-x="1024" d="M-63 -193v386h256v256h256v256h256v126h-256v256h-386v-256h-126v386h256v256h126v-256h386v126h-256v386h126v-256h256v-256h256v-386h-126v256h-386v-126h256v-386h-256v-256h-256v-256h-256v-256h-126zM-63 319v386h256v256h126v-386h-256v-256h-126zM-63 -319h256 v256h126v-256h256v-386h-126v256h-386v-256h-126v386zM449 -193v386h126v-256h256v-256h256v-386h-126v256h-256v256h-256zM705 63v386h256v256h126v-386h-256v-126h256v-386h-126v256h-256z" />
<glyph unicode="&#x2039;" d="M-63 -193v386h126v-256h256v-386h-256v-256h-126v386h256v126h-256zM-63 319v386h126v-256h256v-256h256v-256h256v-256h386v256h256v256h256v256h126v-256h256v-386h-126v256h-386v-256h-256v-256h-256v-256h-126v256h-256v256h-256v256h-256v256h-256zM-63 831v386h256 v126h-256v386h126v-256h256v-386h-256v-126h256v-386h-126v256h-256zM449 319v386h256v126h-256v386h256v126h-256v386h126v-256h256v-386h-256v-126h256v-386h-256v-126h256v-256h386v256h256v256h256v126h-256v386h256v126h-256v386h126v-256h256v-386h-256v-126h256v-256 h256v-386h-126v256h-386v-256h-256v-256h-256v-256h-126v256h-256v256h-256zM961 319v386h256v126h-256v386h256v126h-256v386h126v-256h256v-386h-256v-126h256v-386h-256v-256h-126zM1473 -319h256v256h126v-386h-256v-256h-126v386z" />
<glyph unicode="&#x203a;" d="M-63 -193v386h256v256h126v-256h386v256h126v-256h386v256h256v126h-256v256h-256v256h-386v-256h-126v256h-386v-256h-126v386h256v256h126v-256h386v256h256v256h126v-386h-256v-126h256v-256h256v-256h256v-386h-256v-256h-256v-256h-126v256h-386v-256h-126v256h-386 v-256h-126zM-63 319v386h256v256h126v-256h386v256h126v-256h256v-386h-126v256h-386v-256h-126v256h-386v-256h-126zM-63 -319h256v256h126v-256h386v256h126v-386h-256v-256h-126v256h-386v-256h-126v386zM961 -319h256v256h256v256h256v256h256v126h-256v256h-256v256 h-256v386h256v256h126v-386h-256v-126h256v-256h256v-256h256v-386h-256v-256h-256v-256h-256v-256h-256v-256h-126v386zM1473 -319h256v256h126v-256h256v-386h-126v256h-386v-256h-126v386zM1729 1087v386h126v-256h256v-386h-126v256h-256z" />
<glyph unicode="&#x2044;" horiz-adv-x="512" d="M-63 -193v386h256v256h126v-256h256v-386h-126v256h-386v-256h-126zM-63 -319h256v256h126v-256h256v-386h-126v256h-386v-256h-126v386zM-63 831v386h126v-256h386v256h126v-386h-256v-256h-126v256h-256zM-63 1343v386h126v-256h386v256h126v-386h-256v-256h-126v256 h-256z" />
<glyph unicode="&#x20ac;" d="M-63 -193v386h256v256h256v126h-256v256h-256v386h126v-256h256v-256h386v256h126v-256h386v256h256v256h256v256h126v-256h256v-386h-126v256h-386v-256h-256v-256h-256v-256h-126v256h-386v-256h-256v-256h-256v-256h-126zM-63 -319h256v256h256v256h256v256h126v-256 h386v256h256v256h256v256h126v-386h-256v-256h-256v-256h-256v-256h-126v256h-386v-256h-256v-256h-256v-256h-126v386zM193 1087v386h256v256h126v-386h-256v-126h386v256h126v-256h386v256h256v256h126v-386h-256v-256h-256v-256h-126v256h-386v-256h-126v256h-256z M449 -319h256v256h126v-256h386v256h256v256h256v256h256v256h126v-386h-256v-256h-256v-256h-256v-256h-256v-256h-126v256h-386v-256h-126v386zM1473 -319h256v256h256v256h126v-386h-256v-256h-256v-256h-126v386z" />
<glyph unicode="&#x2122;" d="M-63 -319h256v256h256v126h-256v256h-256v386h126v-256h256v-256h256v-386h-256v-256h-256v-256h-126v386zM-63 831v386h126v-256h256v-256h386v256h256v256h126v-386h-256v-256h-256v-256h-126v256h-256v256h-256zM193 1087v386h256v256h126v-386h-256v-256h-126z M449 -319h256v256h126v-256h256v-386h-126v256h-386v-256h-126v386zM449 831v386h256v256h256v256h126v-256h256v-256h256v-256h256v-256h256v-386h-126v256h-386v-256h-256v-256h-126v386h256v256h256v126h-256v256h-256v256h-386v-256h-256v-256h-126zM705 63v386h256v256 h256v256h126v-386h-256v-256h-256v-126h256v-256h386v256h256v256h126v-386h-256v-256h-256v-126h386v256h256v256h126v-386h-256v-256h-256v-256h-126v256h-256v256h-256v256h-256zM1473 1343v386h126v-256h256v-256h256v-386h-126v256h-256v256h-256z" />
<glyph unicode="&#x2202;" d="M-63 -193v386h256v256h256v126h-256v256h-256v386h126v-256h256v-256h386v256h256v256h126v-256h256v-256h256v-256h256v-386h-256v-256h-256v-256h-256v-256h-126v386h256v256h256v256h256v126h-256v256h-256v256h-386v-256h-256v-256h-256v-256h-256v-256h-126z M-63 -319h256v256h256v256h256v256h256v256h126v-256h256v-386h-256v-256h-256v-256h-256v-256h-126v386h256v256h256v256h256v126h-386v-256h-256v-256h-256v-256h-256v-256h-126v386zM-63 1343v386h126v-256h256v-256h386v256h256v256h126v-386h-256v-256h-256v-256h-126 v256h-256v256h-256zM1217 1087v386h256v256h126v-256h256v-256h256v-386h-126v256h-256v256h-386v-126h256v-256h256v-256h256v-386h-126v256h-256v256h-256v256h-256zM1473 -319h256v256h256v256h126v-386h-256v-256h-256v-256h-126v386z" />
<glyph unicode="&#x2206;" d="M-63 -193v386h126v-256h386v256h256v256h256v256h256v256h256v256h256v256h256v256h126v-386h-256v-256h-256v-256h-256v-256h-256v-256h-256v-256h-256v-256h-256v-126h256v-386h-126v256h-256v256h-256zM-63 319v386h126v-256h256v-386h-126v256h-256zM-63 831v386h126 v-256h256v-256h386v256h256v126h-256v256h-256v386h126v-256h256v-256h256v-386h-256v-256h-256v-256h-126v256h-256v256h-256zM-63 1343v386h126v-256h256v-256h256v-386h-126v256h-256v256h-256zM705 -63h126v-256h256v-386h-126v256h-256v386zM961 -193v386h256v256h256 v256h126v-256h256v-256h256v-386h-126v256h-256v256h-386v-256h-256v-126h256v-256h256v-386h-126v256h-256v256h-256zM961 1343v386h126v-256h386v256h126v-386h-256v-256h-126v256h-256zM1473 -193v386h126v-256h256v-256h256v-386h-126v256h-256v256h-256zM1729 575v386 h256v256h126v-386h-256v-126h256v-386h-126v256h-256z" />
<glyph unicode="&#x220f;" d="M-63 -193v386h256v256h256v256h256v126h-256v256h-256v256h-256v386h126v-256h256v-256h256v-256h256v-386h-256v-256h-256v-256h-256v-256h-126zM-63 319v386h256v126h-256v386h126v-256h256v-386h-256v-256h-126zM-63 -319h256v256h256v256h256v256h256v256h256v256 h126v-386h-256v-256h-256v-256h-256v-256h-256v-256h-256v-256h-126v386zM449 -319h256v256h256v256h256v256h256v256h256v256h256v256h126v-386h-256v-256h-256v-256h-256v-126h256v-256h256v-256h256v-386h-126v256h-256v256h-256v256h-386v-256h-256v-256h-256v-256h-126 v386zM449 1343v386h126v-256h256v-256h386v256h256v256h126v-386h-256v-256h-256v-256h-126v256h-256v256h-256zM961 -319h256v256h126v-256h256v-386h-126v256h-386v-256h-126v386zM1473 831v386h256v256h256v256h126v-386h-256v-256h-256v-256h-126zM1729 63v386h256v256 h126v-386h-256v-126h256v-386h-126v256h-256z" />
<glyph unicode="&#x2211;" d="M-63 319v386h256v126h-256v386h256v256h256v256h126v-386h-256v-256h-256v-126h256v-386h-256v-256h-126zM193 63v386h256v256h256v126h-256v386h256v256h256v256h126v-386h-256v-256h-256v-126h386v256h256v256h256v256h126v-386h-256v-256h-256v-256h-256v-256h-256 v-256h-256v-126h256v-386h-126v256h-256zM193 -63h126v-256h256v-386h-126v256h-256v386zM705 -63h256v126h-256v386h256v256h256v256h126v-386h-256v-256h-256v-126h256v-386h-256v-126h256v-386h-126v256h-256v386zM1217 63v386h256v256h256v126h-256v386h256v256h256v256 h126v-386h-256v-256h-256v-126h256v-386h-256v-256h-256v-126h256v-386h-126v256h-256zM1217 -63h126v-256h256v-386h-126v256h-256v386zM1729 -63h256v126h-256v386h256v256h126v-386h-256v-126h256v-386h-256v-126h256v-386h-126v256h-256v386z" />
<glyph unicode="&#x221a;" d="M-63 -193v386h126v-256h256v-256h386v256h256v256h256v256h256v256h126v-386h-256v-256h-256v-126h386v256h126v-256h256v-256h256v-386h-126v256h-256v256h-386v-256h-256v-256h-126v386h256v126h-386v-256h-256v-256h-126v256h-256v256h-256zM-63 319v386h126v-256h256 v-386h-126v256h-256zM-63 831v386h126v-256h256v-256h386v256h256v256h256v256h256v256h126v-256h256v-386h-126v256h-386v-256h-256v-126h386v256h126v-256h256v-256h256v-386h-126v256h-256v256h-386v-256h-256v-256h-256v-256h-256v-256h-126v386h256v256h256v256h256 v126h-386v-256h-256v-256h-126v256h-256v256h-256zM-63 1343v386h126v-256h256v-256h386v256h126v-386h-256v-256h-126v256h-256v256h-256zM1729 63v386h126v-256h256v-386h-126v256h-256z" />
<glyph unicode="&#x221e;" d="M-63 63v130h256v256h256v256h126v-386h-256v-256h-382zM-63 -319h256v256h256v256h256v256h256v126h-256v256h-386v-256h-256v-256h-126v386h256v256h256v126h-256v386h256v256h126v-386h-256v-126h256v-256h386v256h256v256h256v256h126v-386h-256v-256h-256v-256h-256 v-126h256v-256h386v256h256v256h256v256h126v-386h-256v-256h-256v-256h-256v-126h256v-256h386v256h126v-386h-256v-256h-126v256h-386v-256h-256v-256h-126v386h256v256h256v126h-256v256h-386v-256h-256v-256h-256v-256h-256v-256h-126v386zM449 -319h256v256h256v256 h126v-386h-256v-256h-256v-256h-126v386zM705 1087v386h256v256h126v-386h-256v-256h-126zM1217 575v386h256v256h256v256h256v256h126v-386h-256v-256h-256v-256h-256v-256h-126zM1729 63v386h256v256h126v-386h-256v-256h-126z" />
<glyph unicode="&#x222b;" d="M-63 -193v386h126v-256h256v-256h256v-386h-126v256h-256v256h-256zM-63 319v386h256v256h256v256h126v-256h256v-256h256v-256h256v-256h256v-256h256v-256h256v-386h-126v256h-256v256h-256v256h-256v256h-256v256h-256v256h-386v-256h-256v-256h-126zM-63 1343v386 h126v-256h256v-386h-126v256h-256zM193 63v386h256v256h126v-256h256v-256h256v-256h256v-256h256v-386h-126v256h-256v256h-256v256h-256v256h-386v-126h256v-256h256v-256h256v-386h-126v256h-256v256h-256v256h-256zM449 1343v386h126v-256h256v-256h256v-256h256v-256 h256v-256h386v256h126v-386h-256v-256h-126v256h-256v256h-256v256h-256v256h-256v256h-256zM961 1343v386h126v-256h256v-256h256v-256h386v126h-256v256h-256v386h126v-256h256v-256h256v-386h-256v-256h-126v256h-256v256h-256v256h-256z" />
<glyph unicode="&#x2248;" d="M-63 -193v386h126v-256h386v126h-256v256h-256v386h126v-256h256v-256h256v-386h-256v-256h-256v-256h-126v386h256v126h-256zM-63 831v386h256v256h126v-256h256v-256h256v-256h256v-256h256v-256h256v-256h256v-256h256v-386h-126v256h-256v256h-256v256h-386v-126h256 v-256h256v-386h-126v256h-256v256h-256v386h256v126h-386v-256h-126v256h-256v256h-256v256h-256zM63 961h256v-256h256v-256h386v126h-256v256h-256v256h-386v-126zM449 -319h256v256h126v-256h256v-386h-126v256h-386v-256h-126v386zM449 1343v386h126v-256h256v-256h256 v-256h386v126h-256v256h-256v386h126v-256h256v-256h256v-386h-256v-126h386v256h126v-256h256v-386h-126v256h-386v-126h256v-256h256v-386h-126v256h-256v256h-256v256h-256v256h-256v256h-256v256h-256zM1473 1343v386h126v-256h386v256h126v-386h-256v-256h-126v256 h-256z" />
<glyph unicode="&#x2260;" horiz-adv-x="512" d="M-63 -193v386h256v126h-256v386h126v-256h256v-256h256v-386h-126v256h-386v-256h-126zM-63 -319h256v256h126v-256h256v-386h-126v256h-386v-256h-126v386zM-63 831v386h126v-256h386v256h126v-386h-256v-126h256v-386h-126v256h-256v256h-256zM-63 1343v386h126v-256 h386v256h126v-386h-256v-256h-126v256h-256z" />
<glyph unicode="&#x2264;" horiz-adv-x="512" d="M-63 319v386h256v256h256v126h-256v386h256v256h126v-386h-256v-126h256v-386h-256v-256h-256v-126h256v-386h-126v256h-256zM193 -63h256v256h126v-386h-256v-126h256v-386h-126v256h-256v386z" />
<glyph unicode="&#x2265;" horiz-adv-x="512" d="M-63 -193v386h256v256h256v126h-256v386h126v-256h256v-386h-256v-256h-256v-126h256v-386h-256v-256h-126v386h256v126h-256zM-63 831v386h256v126h-256v386h126v-256h256v-386h-256v-256h-126z" />
<glyph unicode="&#x25ca;" d="M-63 -319h256v256h256v126h-256v386h126v-256h256v-386h-256v-256h-256v-256h-126v386zM-63 831v386h256v256h126v-386h-256v-126h256v-256h386v126h-256v386h256v256h256v256h126v-386h-256v-256h-256v-126h256v-256h256v-256h256v-256h256v-386h-126v256h-256v256h-256 v256h-386v-126h256v-256h256v-386h-256v-256h-256v-256h-126v386h256v256h256v126h-256v256h-256v256h-256v256h-256zM961 -319h256v256h126v-386h-256v-256h-126v386zM961 831v386h126v-256h256v-256h386v126h-256v386h256v256h256v256h126v-386h-256v-256h-256v-126h256 v-256h256v-386h-126v256h-386v-126h256v-256h256v-386h-256v-256h-256v-256h-126v386h256v256h256v126h-256v256h-256v256h-256v256h-256zM1217 1087v386h256v256h126v-386h-256v-256h-126z" />
<glyph unicode="&#x25fc;" horiz-adv-x="1730" d="M0 0v1731h1731v-1731h-1731z" />
<glyph unicode="&#xf8ff;" d="M-63 -193v386h126v-256h256v-256h256v-386h-126v256h-256v256h-256zM-63 319v386h126v-256h256v-386h-126v256h-256zM-63 831v386h126v-256h386v256h256v256h256v256h126v-386h-256v-256h-256v-256h-256v-126h256v-256h256v-256h256v-256h256v-256h256v-386h-126v256 h-256v256h-256v256h-256v256h-256v256h-256v256h-256zM-63 1343v386h126v-256h386v256h126v-386h-256v-256h-126v256h-256zM449 -193v386h126v-256h256v-256h256v-386h-126v256h-256v256h-256zM705 575v386h256v256h256v256h256v256h126v-386h-256v-256h-256v-126h256v-256 h256v-256h256v-256h256v-386h-126v256h-256v256h-256v256h-256v256h-386v-126h256v-256h256v-386h-126v256h-256v256h-256zM1473 -193v386h126v-256h256v-256h256v-386h-126v256h-256v256h-256zM1473 831v386h256v256h256v256h126v-386h-256v-256h-256v-126h256v-256h256 v-386h-126v256h-256v256h-256z" />
<glyph unicode="&#xfb01;" d="M-63 -193v386h126v-256h256v-256h256v-386h-126v256h-256v256h-256zM-63 319v386h126v-256h256v-256h386v256h256v256h256v256h256v256h256v256h256v256h126v-386h-256v-126h256v-386h-126v256h-386v-256h-256v-256h-256v-256h-256v-256h-256v-126h256v-256h256v-386 h-126v256h-256v256h-256v256h-256v256h-256zM-63 831v386h126v-256h256v-256h386v256h256v256h256v126h-256v386h126v-256h256v-386h-256v-256h-256v-256h-256v-256h-126v256h-256v256h-256zM-63 1343v386h126v-256h256v-256h386v126h-256v386h126v-256h256v-386h-256v-256 h-126v256h-256v256h-256zM961 -193v386h256v256h256v256h256v256h126v-256h256v-386h-126v256h-386v-256h-256v-256h-256v-126h256v-256h256v-386h-126v256h-256v256h-256zM1473 -193v386h256v256h126v-256h256v-386h-126v256h-386v-126h256v-256h256v-386h-126v256h-256 v256h-256z" />
<glyph unicode="&#xfb02;" d="M-63 -193v386h256v256h256v256h256v256h256v256h256v256h256v256h126v-386h-256v-256h-256v-256h-256v-126h386v256h256v256h256v256h256v256h126v-386h-256v-256h-256v-256h-256v-256h-256v-126h256v-256h386v256h256v256h126v-386h-256v-256h-256v-126h256v-386h-256 v-256h-126v386h256v126h-256v256h-386v-256h-256v-256h-256v-256h-126v386h256v256h256v256h256v126h-256v256h-386v-256h-256v-256h-256v-256h-126zM-63 319v386h256v256h256v126h-386v-256h-126v386h256v256h126v-256h386v256h256v256h126v-386h-256v-256h-256v-256h-256 v-256h-256v-256h-126zM-63 -319h256v256h256v256h256v256h126v-386h-256v-256h-256v-256h-256v-256h-126v386zM961 -319h256v256h126v-386h-256v-256h-126v386zM1473 319v386h256v256h256v256h126v-386h-256v-256h-256v-256h-126z" />
<glyph />
<glyph />
<glyph />
<glyph />
<glyph />
<glyph />
<glyph />
<glyph />
<glyph />
<glyph />
<glyph />
<glyph />
<glyph />
<glyph />
<glyph />
<glyph />
<glyph />
<glyph />
<glyph />
<glyph />
<glyph />
<glyph />
<glyph />
<glyph />
<glyph />
<glyph />
<glyph />
<glyph />
<glyph />
<glyph />
<glyph />
<glyph />
<glyph />
<glyph />
<glyph />
<glyph />
<glyph />
<glyph />
<glyph />
<glyph />
<glyph />
<glyph horiz-adv-x="1024" />
<glyph />
<glyph />
</font>
</defs>
</svg>
